Правила форума

  • В этом разделе создание новых тем Запрещено.
  • Для создания новых тем пользуйтесь Корневым разделом DVD и HD фильмы.
Начать новую темуОтветить на тему  [ Сообщений: 7 ] 
Торрент файл
Размер: 9.77 GB • Зарегистрирован: 4 года 3 месяца • Статус: Проверено
Скачан: 443 раза • Желающих скачать: 0 • Поблагодарили: 95 раз
 Раздают: 0  |  0 KB/s  ]   Качают: 0  |  0 KB/s  ] 
 Полного источника не было 12 дней 
Сообщения
 Добавлено: 2012-08-11 06:10
Аватара пользователя
Стаж: 8 лет 10 месяцев
Сообщений: 2032
Спасибок: 53742
Лайков: 6
Рейд
Serbuan maut


«Спецназ против мафии. Брат против брата. 30 этажей ада»

Изображение
Год выпуска: 2011
Страна: США, Индонезия
Жанр: боевик, триллер, криминал
Продолжительность: 01:36:44
Перевод: Профессиональный (полное дублирование) [лицензия]

Режиссер: Гарет Эванс
Сценарий: Гарет Эванс
Продюсер: Арио Саганторо, Ранга Майя Барак-Эванс, Натаниель Болотин, Тодд Браун, Ирван Д. Мусри
Оператор: Мэтт Флэннери
Композитор: Майк Шинода, Ария Прайоги, Джозеф Трапанезе, Фаджар Юскемаль

В ролях: Ико Ювайс, Джо Таслим, Дони Аламсях, Яян Рухьян, Пьер Грюно, Рэй Сахетапи, Тегар Сатрия, Ианг Дармаван, Эка 'Пиранья' Рахмадия, Верди Солайман, Alfridus Godfred, Rully Santoso и др.


Описание: Отряд спецназовцев получает задание проникнуть в многоэтажный дом, расположенный в самом сердце трущоб Джакарты, и арестовать обосновавшегося там наркобарона, которого охраняет целая армия вооруженных до зубов головорезов. Операцию нужно провести без лишнего шума, но нелепая случайность нарушает планы служителей закона. Теперь бойцам негде спрятаться и некуда бежать. Перед ними 30 этажей ада, где смертью грозит каждый неверный шаг. Война по правилам кончилась. Выживает сильнейший!


Раздача: Изображение

Изображение

Бюджет: $1 100 000
Мировая премьера: 8 сентября 2011
Релиз на DVD и Blu-ray: 14 августа 2012, «Вольга»

Качество: BDRip 1080p
Контейнер: MKV
Видео: MPEG-4 AVC, 10.9 Мбит/с, 1920x1036
Аудио: Русский (DTS, 6 ch, 1510 Кбит/с), индонезийский (DTS, 6 ch, 1510 Кбит/с)
Субтитры: Russian [107miller, AzurS & Co.], English

Знаете ли Вы, что...
  • В оригинале фильм называется «Вторжение смерти».
Свернуть
MediaInfo
General
Complete name : Rejd.2011.D.BDRip.1080p.IRONCLUB.mkv
Format : Matroska
Format version : Version 2
File size : 9.77 GiB
Duration : 1h 40mn
Overall bit rate : 13.9 Mbps
Movie name : IRONCLUB
Encoded date : UTC 2012-08-10 20:09:52
Writing application : mkvmerge v4.9.1 ('Ich will') built on Jul 11 2011 23:53:15
Writing library : libebml v1.2.1 + libmatroska v1.1.1

Video
ID : 1
Format : AVC
Format/Info : Advanced Video Codec
Format profile : High@L4.1
Format settings, CABAC : Yes
Format settings, ReFrames : 4 frames
Codec ID : V_MPEG4/ISO/AVC
Duration : 1h 40mn
Bit rate : 10.9 Mbps
Width : 1 920 pixels
Height : 1 036 pixels
Display aspect ratio : 1.853
Frame rate : 24.000 fps
Color space : YUV
Chroma subsampling : 4:2:0
Bit depth : 8 bits
Scan type : Progressive
Bits/(Pixel*Frame) : 0.228
Stream size : 7.45 GiB (76%)
Title : The.Raid.Redemption.2011.BluRay.1080p.DTS.x264-CHD
Writing library : x264 core 120 r2146 bcd41db
Encoding settings : cabac=1 / ref=4 / deblock=1:-3:-3 / analyse=0x3:0x113 / me=umh / subme=10 / psy=1 / psy_rd=1.05:0.10 / mixed_ref=1 / me_range=32 / chroma_me=1 / trellis=2 / 8x8dct=1 / cqm=0 / deadzone=21,11 / fast_pskip=0 / chroma_qp_offset=-2 / threads=8 / sliced_threads=0 / nr=0 / decimate=1 / interlaced=0 / bluray_compat=0 / constrained_intra=0 / bframes=5 / b_pyramid=2 / b_adapt=2 / b_bias=0 / direct=3 / weightb=1 / open_gop=0 / weightp=2 / keyint=250 / keyint_min=24 / scenecut=40 / intra_refresh=0 / rc=2pass / mbtree=0 / bitrate=10866 / ratetol=1.0 / qcomp=0.70 / qpmin=0 / qpmax=69 / qpstep=4 / cplxblur=20.0 / qblur=0.5 / ip_ratio=1.40 / pb_ratio=1.30 / aq=2:1.00
Language : English
Default : No
Forced : No

Audio #1
ID : 2
Format : DTS
Format/Info : Digital Theater Systems
Codec ID : A_DTS
Duration : 1h 40mn
Bit rate mode : Constant
Bit rate : 1 510 Kbps
Channel(s) : 6 channels
Channel positions : Front: L C R, Side: L R, LFE
Sampling rate : 48.0 KHz
Bit depth : 16 bits
Compression mode : Lossy
Stream size : 1.06 GiB (11%)
Title : DTS 5.1 @ 1536 kbps - Dub, BD RUS
Language : Russian
Default : Yes
Forced : Yes

Audio #2
ID : 3
Format : DTS
Format/Info : Digital Theater Systems
Codec ID : A_DTS
Duration : 1h 40mn
Bit rate mode : Constant
Bit rate : 1 510 Kbps
Channel(s) : 6 channels
Channel positions : Front: L C R, Side: L R, LFE
Sampling rate : 48.0 KHz
Bit depth : 16 bits
Compression mode : Lossy
Stream size : 1.06 GiB (11%)
Title : DTS 5.1 @ 1536 kbps
Language : English
Default : No
Forced : No

Text #1
ID : 4
Format : UTF-8
Codec ID : S_TEXT/UTF8
Codec ID/Info : UTF-8 Plain Text
Title : 107miller
Language : Russian
Default : No
Forced : No

Text #2
ID : 5
Format : UTF-8
Codec ID : S_TEXT/UTF8
Codec ID/Info : UTF-8 Plain Text
Title : AzurS & Co.
Language : Russian
Default : No
Forced : No

Text #3
ID : 6
Format : UTF-8
Codec ID : S_TEXT/UTF8
Codec ID/Info : UTF-8 Plain Text
Language : English
Default : No
Forced : No
Свернуть
Скриншоты
Изображение

Изображение

Изображение

Изображение
Свернуть
Не в сети
Профиль  
 Добавлено: 2012-08-11 06:51 (спустя 40 минут)
DVD Release Group
Аватара пользователя
Стаж: 7 лет 1 месяц
Сообщений: 3559
Спасибок: 247337
Лайков: 1018
SergeyI
Английской дорожки же нет.
Не в сети
Профиль  
 Добавлено: 2012-08-11 06:54 (спустя 2 минуты)
Аватара пользователя
Стаж: 8 лет 10 месяцев
Сообщений: 2032
Спасибок: 53742
Лайков: 6

rastor:

SergeyI
Английской дорожки же нет.
Есть :)
Я смотрел уже.
Не в сети
Профиль  
 Добавлено: 2012-08-11 07:03 (спустя 9 минут)
DVD Release Group
Аватара пользователя
Стаж: 7 лет 1 месяц
Сообщений: 3559
Спасибок: 247337
Лайков: 1018
SergeyI
Судя по сэмплу вторая дорожка - индонезийская.
Не в сети
Профиль  
 Добавлено: 2012-08-11 07:08 (спустя 5 минут)
Аватара пользователя
Стаж: 8 лет 10 месяцев
Сообщений: 2032
Спасибок: 53742
Лайков: 6
Тоже уже заметил.
Не в сети
Профиль  
 Добавлено: 2012-08-19 14:24 (спустя 8 дней)
Аватара пользователя
Стаж: 8 лет 1 месяц
Сообщений: 553
Спасибок: 380
Лайков: 20
Неплохой боевичок :men:
Только много жёстких кровавых сцен...
Не в сети
Профиль  
 Добавлено: 2012-08-23 10:58 (спустя 3 дня)
Кинокомментатор
Аватара пользователя
Стаж: 9 лет 1 месяц
Сообщений: 1332
Лайков: 54
не однозначное кино:) в принципе всё красиво и динамично:) но всё так же скучно и однообразно;) да и всё в одном доме:) скудные декорации:) да и фантастичность существования именно такого дома, в центре города...) ну в общем не до конца я поверил:) а верить важно!:) так что на мой взгляд оценочка не много завышенная:) 6/10 где то:)
_________________
Я ВКонтакте
Не в сети
Профиль  
Начать новую темуОтветить на тему  [ Сообщений: 7 ] 
Вы не можете начинать темы
Вы не можете отвечать на сообщения
Вы не можете редактировать свои сообщения
Вы не можете удалять свои сообщения