Правила форума

  • В этом разделе создание новых тем Запрещено.
  • Для создания новых тем пользуйтесь Корневым разделом DVD и HD фильмы.
Начать новую темуОтветить на тему  [ Сообщений: 11 ] 
Торрент файл
Размер: 11.2 GB • Зарегистрирован: 2 года 11 месяцев • Статус: Проверено
Скачан: 388 раз • Желающих скачать: 0 • Поблагодарили: 171 раз
 Раздают: 0  |  0 KB/s  ]   Качают: 0  |  0 KB/s  ] 
 Полного источника не было 48 минут 
Сообщения
 Добавлено: 2013-12-23 01:01
Аватара пользователя
Стаж: 9 лет 1 месяц
Сообщений: 7946
Спасибок: 122166
Лайков: 1191
Риддик / Riddick

«Лучший способ отомстить - остаться в живых»

Изображение


Год выпуска: 2013
Страна: Изображение США Изображение Великобритания
Жанр: фантастика, боевик, триллер
Продолжительность: 01:58:39
Субтитры: Русские, английские
Перевод: Профессиональный (полное дублирование) [Лицензия]


Режиссер: Дэвид Туи
Сценарий: Дэвид Туи, Джим Уит, Кен Уит
Продюсер: Вин Дизель, Тед Филд, Камилль Браун
Оператор: Дэвид Эггби
Композитор: Грэм Ревелл

В ролях: Вин Дизель, Хорди Молья, Мэтью Нэйбл, Кэти Сакхофф, Дэйв Батиста, Букем Вудбайн, Рауль Трухильо, Конрад Пла, Дэнни Бланко, Карл Урбан, Ноа Дэнби, Нил Напье, Нолан Фанк, Андреас Апергис, Кери Хилсон, Шарли Мари Дюпон, Ян Герсте, Антуанетта Никпрелаж, Александра Соколовская

Описание: Преданный своими и брошенный умирать на пустынной планете, Риддик сражается с хищниками за жизнь и становится сильнее и опаснее себя прежнего. Открывшие на него охоту галактические наемники оказываются пешками в грандиозном плане отмщения. С врагами, возникающими на его пути тогда, когда это нужно самому Риддику, он начинает поход во имя мести, чтобы в конечном счете вернуться на родную Фурию и спасти ее от уничтожения.

Изображение Изображение

Раздача группы: Изображение

Качество: BDRip (1080p)
Формат: Matroska
Видео: MPEG-4 AVC, 11.6 Мбит/с, 1920x800, 23.976 кадр/с
Аудио №1: Русский (AC3, 48,0 КГц, 6 ch, 384 Кбит/c)
Аудио №2: Английский (DTS, 48,0 КГц, 6 ch, 1510 Кбит/c)

MediaInfo
Общее
Уникальный идентификатор : 234252682068551585314375310408108798316 (0xB03B6CED3B962473B7278882971CF16C)
Полное имя : C:\Фильмы\Riddick.2013.BluRay.1080p.DTS.x264-CHD.[R.G.Daredevil].mkv
Формат : Matroska
Версия формата : Version 2
Размер файла : 11,2 Гбайт
Продолжительность : 1 ч. 58 м.
Общий поток : 13,5 Мбит/сек
Название фильма : Respector
Дата кодирования : UTC 2013-12-22 10:16:57
Программа кодирования : mkvmerge v5.5.0 ('Healer') built on Apr 24 2012 23:47:03
Библиотека кодирования : libebml v1.2.3 + libmatroska v1.3.0

Видео
Идентификатор : 1
Формат : AVC
Формат/Информация : Advanced Video Codec
Профиль формата : High@L4.1
Параметр CABAC формата : Да
Параметр ReFrames формата : 5 кадров
Идентификатор кодека : V_MPEG4/ISO/AVC
Продолжительность : 1 ч. 58 м.
Битрейт : 11,6 Мбит/сек
Ширина : 1920 пикселей
Высота : 800 пикселей
Соотношение сторон : 2,40:1
Режим частоты кадров : Постоянный
Частота кадров : 23,976 кадра/сек
Цветовое пространство : YUV
Субдискретизация насыщенности : 4:2:0
Битовая глубина : 8 бит
Тип развёртки : Прогрессивная
Бит/(Пиксели*Кадры) : 0.316
Размер потока : 9,41 Гбайт (84%)
Библиотека кодирования : x264 core 138 r2356 a1d3d17
Настройки программы : cabac=1 / ref=5 / deblock=1:-3:-3 / analyse=0x3:0x113 / me=umh / subme=10 / psy=1 / psy_rd=1.00:0.05 / mixed_ref=1 / me_range=32 / chroma_me=1 / trellis=2 / 8x8dct=1 / cqm=0 / deadzone=21,11 / fast_pskip=0 / chroma_qp_offset=-2 / threads=18 / lookahead_threads=1 / sliced_threads=0 / nr=0 / decimate=1 / interlaced=0 / bluray_compat=0 / constrained_intra=0 / bframes=5 / b_pyramid=2 / b_adapt=2 / b_bias=0 / direct=3 / weightb=1 / open_gop=0 / weightp=2 / keyint=250 / keyint_min=23 / scenecut=40 / intra_refresh=0 / rc=2pass / mbtree=0 / bitrate=11624 / ratetol=1.0 / qcomp=0.70 / qpmin=0 / qpmax=69 / qpstep=4 / cplxblur=20.0 / qblur=0.5 / ip_ratio=1.40 / pb_ratio=1.30 / aq=2:0.90
Язык : English
Default : Да
Forced : Нет

Аудио #1
Идентификатор : 2
Формат : AC-3
Формат/Информация : Audio Coding 3
Расширение режима : CM (complete main)
Параметр Endianness формата : Big
Идентификатор кодека : A_AC3
Продолжительность : 1 ч. 58 м.
Вид битрейта : Постоянный
Битрейт : 384 Кбит/сек
Каналы : 6 каналов
Расположение каналов : Front: L C R, Side: L R, LFE
Частота : 48,0 КГц
Битовая глубина : 16 бит
Метод сжатия : С потерями
Размер потока : 326 Мбайт (3%)
Язык : Russian
Default : Да
Forced : Да

Аудио #2
Идентификатор : 3
Формат : DTS
Формат/Информация : Digital Theater Systems
Режим : 16
Параметр Endianness формата : Big
Идентификатор кодека : A_DTS
Продолжительность : 1 ч. 58 м.
Вид битрейта : Постоянный
Битрейт : 1509 Кбит/сек
Каналы : 6 каналов
Расположение каналов : Front: L C R, Side: L R, LFE
Частота : 48,0 КГц
Битовая глубина : 24 бит
Метод сжатия : С потерями
Размер потока : 1,25 Гбайт (11%)
Язык : English
Default : Нет
Forced : Нет

Текст #1
Идентификатор : 4
Формат : UTF-8
Идентификатор кодека : S_TEXT/UTF8
Идентификатор кодека/Информация : UTF-8 Plain Text
Язык : Russian
Default : Нет
Forced : Нет

Текст #2
Идентификатор : 5
Формат : UTF-8
Идентификатор кодека : S_TEXT/UTF8
Идентификатор кодека/Информация : UTF-8 Plain Text
Язык : English
Default : Нет
Forced : Нет

Меню
00:00:00.000 : en:
00:08:22.668 : en:
00:19:44.600 : en:
00:30:00.799 : en:
00:42:49.316 : en:
00:51:07.814 : en:
01:03:07.950 : en:
01:11:46.844 : en:
01:21:01.857 : en:
01:33:41.324 : en:
01:44:40.774 : en:
01:54:50.925 : en:
Свернуть
Знаете ли вы, что...
Производство фильма оказалось под угрозой срыва, когда была задержка в финансировании. В итоге Вин Дизель взял на себя финансирование фильма до тех пор, пока не разрешилась проблема с банковской ссудой.

Кери Хилсон проходила прослушивание на роль Дали. Роль в итоге отошла Кэти Сакхофф, но Дэвид Туи был настолько впечатлен харизмой Хилсон, что написал небольшую роль специально для нее.

Первоначальное название сценария было — «Хроники Риддика: Преследование мертвеца» (The Chronicles of Riddick: Dead Man Stalking).

Вин Дизель согласился сыграть эпизодическую роль в фильме «Тройной форсаж: Токийский Дрифт» (2006) в обмен на права на франшизу «Риддика» от Universal Pictures. Это позволило ему заниматься производством «Риддика» самостоятельно.

Персонаж Мэтью Нэйбла — Босс Джонс — это отец Уильяма Дж. Джонса, которого в фильме «Черная дыра» (1999) сыграл Коул Хаузер. В реальной жизни Нэйбл всего на три года старше Хаузера.

В конце фильма, когда Даль спускается с корабля, чтобы привязать Риддика к веревке, идет дождь. Однако Даль и Риддик полностью сухие. Даже волосы Дали свободно развеваются на ветру.

Свернуть
Скриншоты
Изображение
Изображение
Изображение
Изображение
Свернуть
Не в сети
Профиль  
 Добавлено: 2013-12-23 08:06 (спустя 7 часов)
Аватара пользователя
Стаж: 7 лет 6 месяцев
Сообщений: 78
Лайков: 1
Уважаемый krazz!
А заявленная в названии релиза цифра "1080" - это где? Изображение По диагонали что ли?
Не в сети
Профиль  
 Добавлено: 2013-12-23 08:34 (спустя 28 минут)
Аватара пользователя
Стаж: 9 лет 1 месяц
Сообщений: 7946
Спасибок: 122166
Лайков: 1191
Kollaidermen
BDRip 1080p это один из стандартов качества BDRip
при рипинге черные полосы которые есть на исходном блюре обрезаются отсюда и соотношение сторон 1920x800
Не в сети
Профиль  
 Добавлено: 2013-12-23 14:10 (спустя 5 часов)
Top-seeder
Стаж: 7 лет 10 месяцев
Сообщений: 283
Спасибок: 429
Лайков: 3
Kollaidermen
По диагонали будет 2080, даже школьник сосчитает.
А уважаемый krazz отличается завидным терпением :co_ol: Мое почтение и благодарность за релиз.
_________________
HTPC1:Q8300+GF9300|HTPC2:i3570k+z77|Ресивер:Denon 3806|Акустика:Monitor Audio Silver 5.1(3*RSLCR, RSFX, RSW12)|ТВ:Sharp 52x20
Не в сети
Профиль  
 Добавлено: 2013-12-23 16:04 (спустя 1 час 54 минуты)
Аватара пользователя
Стаж: 8 лет 7 месяцев
Возраст: 28
Сообщений: 205
Лайков: 1
Фильм такой редкостный высер!!! Первый фильм прям по сравнению с этим, шедевр кино!
_________________
Intel Core i7 860 3,36 , Asus Maximus Formula III, 8 Gb DDR3 1600 оперативы, GTX 580.
Не в сети
Профиль  
 Добавлено: 2013-12-23 22:20 (спустя 6 часов)
Аватара пользователя
Стаж: 8 лет 9 месяцев
Сообщений: 1170
Спасибок: 1294
Лайков: 7
это какая по счету часть? или перезапуск первой? или как? :du_ma_et:
Не в сети
Профиль  
 Добавлено: 2013-12-23 22:30 (спустя 9 минут)
Кинокомментатор
Аватара пользователя
Стаж: 9 лет 1 месяц
Сообщений: 1332
Лайков: 54
ну не плохо) мелковато только... одна планета, мало врагов... и вот эти ночные баталии в конце совсем меня усыпили) приятных снов;) 6/10
_________________
Я ВКонтакте
Не в сети
Профиль  
 Добавлено: 2013-12-24 06:18 (спустя 7 часов)
Стаж: 7 лет 5 месяцев
Сообщений: 103
Лайков: 4
вот бы мне хоть раз убить человека так , как он!
Не в сети
Профиль  
 Добавлено: 2013-12-24 18:30 (спустя 12 часов)
Аватара пользователя
Стаж: 7 лет 6 месяцев
Сообщений: 78
Лайков: 1

krazz:

BDRip 1080p это один из стандартов качества BDRip
при рипинге черные полосы которые есть на исходном блюре обрезаются отсюда и соотношение сторон 1920x800
А как узнать, есть в рипе эти полоски или нет? А то, понимаешь, малость жаба душит, когда почти пол экрана трафик жрёт впустую)
Не в сети
Профиль  
 Добавлено: 2013-12-26 20:33 (спустя 2 дня 2 часа)
Аватара пользователя
Стаж: 4 года 11 месяцев
Сообщений: 67
хорошее кино-надо смотреть все 3 части!
Не в сети
Профиль  
 Добавлено: 2013-12-29 22:24 (спустя 3 дня)
Аватара пользователя
Стаж: 7 лет
Возраст: 30
Сообщений: 507
Спасибок: 1931
Я в неописуемом восторге от просмотра! На одном дыхании!!!!!!!
_________________
Изображение
Не в сети
Профиль  
Начать новую темуОтветить на тему  [ Сообщений: 11 ] 
Вы не можете начинать темы
Вы не можете отвечать на сообщения
Вы не можете редактировать свои сообщения
Вы не можете удалять свои сообщения