Правила форума

  • В этом разделе создание новых тем Запрещено.
  • Для создания новых тем пользуйтесь Корневым разделом DVD и HD фильмы.
Начать новую темуОтветить на тему  [ Сообщений: 2 ] 
Торрент файл
Размер: 18.24 GB • Зарегистрирован: 2 года 11 месяцев • Статус: Проверено
Скачан: 50 раз • Желающих скачать: 0 • Поблагодарили: 31 раз
 Раздают: 2  |  0 KB/s  ]   Качают: 0  |  0 KB/s  ] 
Сообщения
 Добавлено: 2013-12-24 21:04
Аватара пользователя
Стаж: 3 года 6 месяцев
Сообщений: 175
Спасибок: 4258
Лайков: 29
Риддик / Riddick

«Лучший способ отомстить - остаться в живых»

Изображение


Год выпуска: 2013
Страна: США, Великобритания
Жанр: фантастика, боевик, триллер
Продолжительность: 01:58:40
Перевод: Профессиональный (дубляж)[ iTunes Russia ]
Субтитры: Russian, English, Portuguese, Spanish

Режиссёр: Дэвид Туи
Продюсер: Вин Дизель, Тед Филд, Камилль Браун
В ролях: Вин Дизель, Хорди Молья, Мэтью Нэйбл, Кэти Сакхофф, Дэйв Батиста, Букем Вудбайн, Рауль Трухильо, Конрад Пла, Дэнни Бланко, Карл Урбан
Описание: Преданный своими и брошенный умирать на пустынной планете, Риддик сражается с хищниками за жизнь и становится сильнее и опаснее себя прежнего. Открывшие на него охоту галактические наемники оказываются пешками в грандиозном плане отмщения. С врагами, возникающими на его пути тогда, когда это нужно самому Риддику, он начинает поход во имя мести, чтобы в конечном счете вернуться на родную Фурию и спасти ее от уничтожения.
Доп.информация: •Сохранены оригинальные чаптеры как на Blu-ray.
Бюджет: $38 000 000
Изображение
Изображение

Качество: BDRemux 1080p
Формат: BDAV
Видео кодек: AVC
Аудио кодек: AC3 (Dolby Digital), DTS
Видео: 1920x1080 at 23.976 fps, MPEG-4 AVC , ~18829 kbps avg
Аудио #1: Russian: 48 kHz, AC3, 3/2 (L,C,R,l,r) + LFE ch, ~384.00 kbps avg
Аудио #2: English: 48 kHz, DTS, 3/2 (L,C,R,l,r) + LFE ch, ~1536.00 kbps avg
Скриншоты
Изображение
Изображение
Изображение
Изображение
Изображение
Свернуть

Знаете ли вы, что...
• Вин Дизель согласился сыграть эпизодическую роль в фильме «Тройной форсаж: Токийский Дрифт» (2006) в обмен на права на франшизу «Риддика» от Universal Pictures. Это позволило ему заниматься производством «Риддика» самостоятельно.
• Производство фильма оказалось под угрозой срыва, когда была задержка в финансировании. В итоге Вин Дизель взял на себя финансирование фильма до тех пор, пока не разрешилась проблема с банковской ссудой.
• Первоначальное название сценария было — «Хроники Риддика: Преследование мертвеца» (The Chronicles of Riddick: Dead Man Stalking).
• Кери Хилсон проходила прослушивание на роль Дали. Роль в итоге отошла Кэти Сакхофф, но Дэвид Туи был настолько впечатлен харизмой Хилсон, что написал небольшую роль специально для нее.
• Персонаж Мэтью Нэйбла — Босс Джонс — это отец Уильяма Дж. Джонса, которого в фильме «Черная дыра» (1999) сыграл Коул Хаузер. В реальной жизни Нэйбл всего на три года старше Хаузера.
Свернуть
Ошибки в фильме
• В конце фильма, когда Даль спускается с корабля, чтобы привязать Риддика к веревке, идет дождь. Однако Даль и Риддик полностью сухие. Даже волосы Дали свободно развеваются на ветру.
Свернуть
BDInfo
General
ID : 1 (0x1)
Complete name : F:\ФИЛЬМЫ\RIDDICK_2013_THEATRICAL_CUT_REMUX_HDCLUB\BDMV\STREAM\00000.m2ts
Format : BDAV
Format/Info : Blu-ray Video
File size : 18.2 GiB
Duration : 1h 58mn
Overall bit rate mode : Variable
Overall bit rate : 22.0 Mbps
Maximum Overall bit rate : 35.5 Mbps

Video
ID : 4113 (0x1011)
Menu ID : 1 (0x1)
Format : AVC
Format/Info : Advanced Video Codec
Format profile : High@L4.1
Format settings, CABAC : Yes
Format settings, ReFrames : 2 frames
Codec ID : 27
Duration : 1h 58mn
Bit rate mode : Variable
Bit rate : 19.2 Mbps
Maximum bit rate : 35.0 Mbps
Width : 1 920 pixels
Height : 1 080 pixels
Display aspect ratio : 16:9
Frame rate : 23.976 fps
Color space : YUV
Chroma subsampling : 4:2:0
Bit depth : 8 bits
Scan type : Progressive
Bits/(Pixel*Frame) : 0.386
Stream size : 15.9 GiB (87%)
Writing library : x264 core 140 r2377 1ca7bb9
Encoding settings : cabac=1 / ref=1 / deblock=1:0:0 / analyse=0x3:0x3 / me=dia / subme=1 / psy=1 / psy_rd=1.00:0.00 / mixed_ref=0 / me_range=16 / chroma_me=1 / trellis=0 / 8x8dct=1 / cqm=0 / deadzone=21,11 / fast_pskip=1 / chroma_qp_offset=0 / threads=9 / lookahead_threads=1 / sliced_threads=0 / slices=4 / nr=0 / decimate=1 / interlaced=0 / bluray_compat=1 / constrained_intra=0 / bframes=3 / b_pyramid=0 / b_adapt=1 / b_bias=0 / direct=1 / weightb=1 / open_gop=0 / weightp=1 / keyint=24 / keyint_min=1 / scenecut=40 / intra_refresh=0 / rc_lookahead=0 / rc=abr / mbtree=0 / bitrate=19182 / ratetol=1.0 / qcomp=0.60 / qpmin=0 / qpmax=69 / qpstep=4 / vbv_maxrate=35000 / vbv_bufsize=30000 / nal_hrd=vbr / filler=0 / ip_ratio=1.10 / pb_ratio=1.10 / aq=1:1.00

Audio #1
ID : 4352 (0x1100)
Menu ID : 1 (0x1)
Format : AC-3
Format/Info : Audio Coding 3
Mode extension : CM (complete main)
Format settings, Endianness : Big
Codec ID : 129
Duration : 1h 58mn
Bit rate mode : Constant
Bit rate : 384 Kbps
Channel(s) : 6 channels
Channel positions : Front: L C R, Side: L R, LFE
Sampling rate : 48.0 KHz
Bit depth : 16 bits
Compression mode : Lossy
Stream size : 326 MiB (2%)

Audio #2
ID : 4353 (0x1101)
Menu ID : 1 (0x1)
Format : DTS
Format/Info : Digital Theater Systems
Mode : 16
Format settings, Endianness : Big
Codec ID : 130
Duration : 1h 58mn
Bit rate mode : Constant
Bit rate : 1 509 Kbps
Channel(s) : 6 channels
Channel positions : Front: L C R, Side: L R, LFE
Sampling rate : 48.0 KHz
Bit depth : 24 bits
Compression mode : Lossy
Stream size : 1.25 GiB (7%)

Text #1
ID : 4608 (0x1200)
Menu ID : 1 (0x1)
Format : PGS
Codec ID : 144

Text #2
ID : 4609 (0x1201)
Menu ID : 1 (0x1)
Format : PGS
Codec ID : 144

Text #3
ID : 4610 (0x1202)
Menu ID : 1 (0x1)
Format : PGS
Codec ID : 144

Text #4
ID : 4611 (0x1203)
Menu ID : 1 (0x1)
Format : PGS
Codec ID : 144
Свернуть
 odyashka2013 нравится это.
Не в сети
Профиль  
 Добавлено: 2014-01-04 03:33 (спустя 10 дней)
Top-seeder
Аватара пользователя
Стаж: 6 лет 5 месяцев
Сообщений: 313
смотрел в кино , мне понравился фильм :) советую :)
_________________
скорость
Изображение
Свернуть
Не в сети
Профиль  
Начать новую темуОтветить на тему  [ Сообщений: 2 ] 
Вы не можете начинать темы
Вы не можете отвечать на сообщения
Вы не можете редактировать свои сообщения
Вы не можете удалять свои сообщения