Правила форума

  • В этом разделе создание новых тем Запрещено.
  • Для создания новых тем пользуйтесь Корневым разделом DVD и HD фильмы.
Начать новую темуОтветить на тему  [ 1 сообщение ] 
Торрент файл
Размер: 7.92 GB • Зарегистрирован: 1 год • Статус: Проверено
Скачан: 118 раз • Желающих скачать: 0 • Поблагодарили: 20 раз
 Раздают: 0  |  0 KB/s  ]   Качают: 0  |  0 KB/s  ] 
 Полного источника не было 1 час 
Сообщения
 Добавлено: 2015-11-10 04:55
DVD Release Group
Аватара пользователя
Стаж: 7 лет 1 месяц
Сообщений: 3555
Спасибок: 247206
Лайков: 1018
Рики и Флэш

Ricki and the Flash


Изображение


Год выпуска: 2015
Страна: США
Жанр: Драма, комедия
Продолжительность: 01:41:26
Перевод: Профессиональный (полное дублирование)
Режиссер: Джонатан Демме
В ролях: Мэрил Стрип, Мэми Гаммер, Кевин Клайн, Одра МакДональд, Себастьян Стэн, Рик Спрингфилд, Рик Росас, Джо Витале, Берни Уоррелл, Бен Платт
Описание: Бывшая рок-звезда, очень популярная в прошлом, понимая, что лучшие ее годы далеко позади, решает восстановить свои отношения с мужем и дочкой, которыми она пожертвовала ради карьеры. Но ситуацию осложняет ее новая любовь...
Изображение Изображение
Sample:
http://sendfile.su/1172597
Качество: BDRip 1080p
Формат: MKV
Видео кодек: H.264
Аудио кодек: AC3
Видео: 1920x808 23.98fps 9288kbps
Аудио:
Аудио Rus: AC3 48kHz 6ch 384Kbps
Аудио Eng: DTS 48kHz 6ch 1510Kbps
"MediaInfo"
Формат : Matroska
Версия формата : Version 2
Размер файла : 7,92 Гбайт
Продолжительность : 1 ч. 41 м.
Общий поток : 11,2 Мбит/сек
Дата кодирования : UTC 2015-11-09 22:00:23
Программа кодирования : mkvmerge v8.3.0 ('Over the Horizon') 64bit
Библиотека кодирования : libebml v1.3.1 + libmatroska v1.4.2
DURATION : 01:41:27.083000000
NUMBER_OF_FRAMES : 570664
NUMBER_OF_BYTES : 1148175968
_STATISTICS_WRITING_APP : mkvmerge v8.3.0 ('Over the Horizon') 64bit
_STATISTICS_WRITING_DATE_UTC : 2015-11-09 22:00:23
_STATISTICS_TAGS : BPS DURATION NUMBER_OF_FRAMES NUMBER_OF_BYTES

Видео
Идентификатор : 2
Формат : AVC
Формат/Информация : Advanced Video Codec
Профиль формата : High@L4.1
Параметр CABAC формата : Да
Параметр ReFrames формата : 5 кадров
Идентификатор кодека : V_MPEG4/ISO/AVC
Продолжительность : 1 ч. 41 м.
Битрейт : 9288 Кбит/сек
Ширина : 1920 пикселей
Высота : 808 пикселей
Соотношение сторон : 2,40:1
Режим частоты кадров : Постоянный
Частота кадров : 23,976 кадра/сек
Цветовое пространство : YUV
Субдискретизация насыщенности : 4:2:0
Битовая глубина : 8 бит
Тип развёртки : Прогрессивная
Бит/(Пиксели*Кадры) : 0.250
Размер потока : 6,42 Гбайт (81%)
Библиотека кодирования : x264 core 148 r2597 e86f3a1
Настройки программы : cabac=1 / ref=5 / deblock=1:0:0 / analyse=0x3:0x133 / me=umh / subme=7 / psy=1 / psy_rd=1.00:0.00 / mixed_ref=1 / me_range=16 / chroma_me=1 / trellis=1 / 8x8dct=1 / cqm=0 / deadzone=21,11 / fast_pskip=0 / chroma_qp_offset=-2 / threads=18 / lookahead_threads=3 / sliced_threads=0 / nr=0 / decimate=1 / interlaced=0 / bluray_compat=0 / constrained_intra=0 / bframes=3 / b_pyramid=2 / b_adapt=1 / b_bias=0 / direct=1 / weightb=1 / open_gop=0 / weightp=2 / keyint=250 / keyint_min=23 / scenecut=40 / intra_refresh=0 / rc_lookahead=40 / rc=2pass / mbtree=1 / bitrate=9288 / ratetol=1.0 / qcomp=0.60 / qpmin=0 / qpmax=69 / qpstep=4 / cplxblur=20.0 / qblur=0.5 / ip_ratio=1.40 / aq=1:1.00
Язык : English
Default : Да
Forced : Нет

Аудио #1
Идентификатор : 1
Формат : AC-3
Формат/Информация : Audio Coding 3
Расширение режима : CM (complete main)
Параметр Endianness формата : Big
Идентификатор кодека : A_AC3
Продолжительность : 1 ч. 41 м.
Вид битрейта : Постоянный
Битрейт : 384 Кбит/сек
Каналы : 6 каналов
Расположение каналов : Front: L C R, Side: L R, LFE
Частота : 48,0 КГц
Битовая глубина : 16 бит
Метод сжатия : С потерями
Размер потока : 279 Мбайт (3%)
Default : Да
Forced : Нет
DURATION : 01:41:27.008000000
NUMBER_OF_FRAMES : 145942
NUMBER_OF_BYTES : 7064946663
_STATISTICS_WRITING_APP : mkvmerge v8.3.0 ('Over the Horizon') 64bit
_STATISTICS_WRITING_DATE_UTC : 2015-11-09 22:00:23
_STATISTICS_TAGS : BPS DURATION NUMBER_OF_FRAMES NUMBER_OF_BYTES

Аудио #2
Идентификатор : 3
Формат : DTS
Формат/Информация : Digital Theater Systems
Режим : 16
Параметр Endianness формата : Big
Идентификатор кодека : A_DTS
Продолжительность : 1 ч. 41 м.
Вид битрейта : Постоянный
Битрейт : 1509 Кбит/сек
Каналы : 6 каналов
Расположение каналов : Front: L C R, Side: L R, LFE
Частота : 48,0 КГц
Битовая глубина : 24 бит
Метод сжатия : С потерями
Размер потока : 1,07 Гбайт (13%)
Язык : English
Default : Нет
Forced : Нет

Меню
00:00:00.000 : en:00:00:00.000
00:07:27.864 : en:00:07:27.864
00:12:49.185 : en:00:12:49.185
00:19:04.310 : en:00:19:04.310
00:24:38.727 : en:00:24:38.727
00:28:08.228 : en:00:28:08.228
00:34:20.225 : en:00:34:20.225
00:41:59.392 : en:00:41:59.392
00:45:36.525 : en:00:45:36.525
00:49:36.432 : en:00:49:36.432
00:56:05.404 : en:00:56:05.404
01:03:27.929 : en:01:03:27.929
01:08:03.663 : en:01:08:03.663
01:18:05.264 : en:01:18:05.264
01:23:02.269 : en:01:23:02.269
01:30:18.496 : en:01:30:18.496
Свернуть

"Скриншоты"
Изображение
Изображение
Изображение
Свернуть
Не в сети
Профиль  
Начать новую темуОтветить на тему  [ 1 сообщение ] 
Вы не можете начинать темы
Вы не можете отвечать на сообщения
Вы не можете редактировать свои сообщения
Вы не можете удалять свои сообщения