Правила форума

  • В этом разделе создание новых тем Запрещено.
  • Для создания новых тем пользуйтесь Корневым разделом DVD и HD фильмы.
Начать новую темуОтветить на тему  [ 1 сообщение ] 
Торрент файл
Размер: 13.65 GB • Зарегистрирован: 4 года • Статус: Проверено
Скачан: 102 раза • Желающих скачать: 0 • Поблагодарили: 22 раза
 Раздают: 0  |  0 KB/s  ]   Качают: 0  |  0 KB/s  ] 
 Полного источника не было 1 год 6 месяцев 
Сообщения
 Добавлено: 2012-12-03 09:47
Модератор
Аватара пользователя
Стаж: 6 лет 10 месяцев
Возраст: 33
Сообщений: 5908
Спасибок: 61260
Лайков: 3540
Изображение

Римские приключения
To Rome with Love


Год выпуска: 2012
Страна: США, Италия, Испания
Жанр: мелодрама, комедия
Продолжительность: 01:51:54
Перевод: Профессиональный (полное дублирование)
Режиссер: Вуди Аллен
Сценарий: Вуди Аллен
Продюсер: Фарук Алатан, Летти Аронсон, Джиампаоло Летто, Стивен Тененбаум, Франческо Маррас
Оператор: Дариус Хонджи
В ролях: Вуди Аллен, Алек Болдуин, Роберто Бениньи, Пенелопа Крус, Джуди Дэвис, Джесси Айзенберг, Грета Гервиг, Эллен Пейдж, Флавио Паренти, Элисон Пилл, Алессандро Тибери, Алессандра Мастронарди
Сборы в США: $16 685 867
Сборы в России: $2 850 924
Сборы в мире: $73 135 981
Мировая премьера: 20 апреля 2012
Релиз на DVD: 6 декабря 2012, «CD Land»
Релиз на Blu-ray: 6 декабря 2012, «CD Land»
Описание: Комедия, действие которой происходит в одном из самых прекрасных городов мира. Мы встретим известного американского архитектора, переживающего вторую юность, простого обывателя, неожиданно проснувшегося знаменитым, молодоженов из провинции, каждого из которых ждут романтические открытия, и американского оперного постановщика, задумавшего вывести на сцену поющего работника похоронного бюро.

Изображение User Rating: 7.602 (5 447)
Изображение User Rating: 6.40 (19 334)
MPAA: R - Лицам до 17 лет обязательно присутствие взрослого
Раздача группы: Изображение
Изображение
Качество: BDRip, 1080p
Формат: Matroska
Видео: MPEG-4 AVC, 15500 Кбит/с, 1920x1040
Аудио №1: Русский (AC3, 6 ch, 448 Кбит/c), английский (AC3, 6 ch, 640 Кбит/c)
Субтитры: Итальянские, английские
mediainfo
Полное имя : D:\Римские.приключения-To.Rome.with.Love.(2012).[1080p].BDRip.mkv
Формат : Matroska
Версия формата : Version 2
Размер файла : 13,6 Гбайт
Продолжительность : 1 ч. 51 м.
Общий поток : 17,5 Мбит/сек
Название фильма : =NNM-Club=
Дата кодирования : UTC 2012-12-02 21:00:55
Программа кодирования : mkvmerge v5.7.0 ('The Whirlwind') built on Aug 7 2012 14:11:40
Библиотека кодирования : libebml v1.2.3 + libmatroska v1.3.0

Видео
Идентификатор : 1
Формат : AVC
Формат/Информация : Advanced Video Codec
Профиль формата : High@L4.1
Параметр CABAC формата : Да
Параметр ReFrames формата : 4 кадра
Идентификатор кодека : V_MPEG4/ISO/AVC
Продолжительность : 1 ч. 51 м.
Битрейт : 15,5 Мбит/сек
Ширина : 1920 пикселей
Высота : 1040 пикселей
Соотношение сторон : 1,85:1
Режим частоты кадров : Постоянный
Частота кадров : 23,976 кадра/сек
Цветовое пространство : YUV
Субдискретизация насыщенности : 4:2:0
Битовая глубина : 8 бит
Тип развёртки : Прогрессивная
Бит/(Пиксели*Кадры) : 0.324
Размер потока : 11,8 Гбайт (87%)
Библиотека кодирования : x264 core 128 r2216+688+33 06dac27 tMod+MixAQ [8-bit@4:2:0 X86_64]
Настройки программы : cabac=1 / ref=4 / deblock=1:-3:-3 / analyse=0x3:0x113 / me=umh / subme=11 / psy=1 / fade_compensate=0.00 / psy_rd=1.10:0.00 / mixed_ref=1 / me_range=48 / chroma_me=1 / trellis=2 / 8x8dct=1 / cqm=0 / deadzone=21,11 / fast_pskip=0 / chroma_qp_offset=-2 / threads=18 / lookahead_threads=3 / sliced_threads=0 / nr=0 / decimate=0 / interlaced=0 / bluray_compat=0 / constrained_intra=0 / fgo=0 / bframes=8 / b_pyramid=2 / b_adapt=2 / b_bias=0 / direct=3 / weightb=1 / open_gop=0 / weightp=2 / keyint=240 / keyint_min=24 / scenecut=40 / intra_refresh=0 / rc_lookahead=240 / rc=2pass / mbtree=1 / bitrate=15500 / ratetol=1.0 / qcomp=0.70 / qpmin=0 / qpmax=69 / qpstep=4 / cplxblur=20.0 / qblur=0.5 / ip_ratio=1.15 / aq=4 / aq-strength=0.85 / aq-sensitivity=10.00 / aq-ifactor=1.00 / aq-pfactor=1.00 / aq-bfactor=1.00 / aq2=0
Язык : English
Default : Да
Forced : Нет

Аудио #1
Идентификатор : 2
Формат : AC-3
Формат/Информация : Audio Coding 3
Расширение режима : CM (complete main)
Параметр Endianness формата : Big
Идентификатор кодека : A_AC3
Продолжительность : 1 ч. 51 м.
Вид битрейта : Постоянный
Битрейт : 448 Кбит/сек
Каналы : 6 каналов
Расположение каналов : Front: L C R, Side: L R, LFE
Частота : 48,0 КГц
Битовая глубина : 16 бит
Метод сжатия : С потерями
Размер потока : 359 Мбайт (3%)
Язык : Russian
Default : Да
Forced : Нет

Аудио #2
Идентификатор : 3
Формат : DTS
Формат/Информация : Digital Theater Systems
Идентификатор кодека : A_DTS
Продолжительность : 1 ч. 51 м.
Вид битрейта : Постоянный
Битрейт : 1510 Кбит/сек
Каналы : 6 каналов
Расположение каналов : Front: L C R, Side: L R, LFE
Частота : 48,0 КГц
Битовая глубина : 16 бит
Метод сжатия : С потерями
Размер потока : 1,18 Гбайт (9%)
Язык : English
Default : Нет
Forced : Нет

Текст #1
Идентификатор : 4
Формат : UTF-8
Идентификатор кодека : S_TEXT/UTF8
Идентификатор кодека/Информация : UTF-8 Plain Text
Язык : English
Default : Нет
Forced : Нет

Текст #2
Идентификатор : 5
Формат : UTF-8
Идентификатор кодека : S_TEXT/UTF8
Идентификатор кодека/Информация : UTF-8 Plain Text
Заголовок : SDH
Язык : Italian
Default : Нет
Forced : Нет

Меню
00:00:00.000 : :00:00:00.000
00:06:19.546 : :00:06:19.546
00:10:09.984 : :00:10:09.984
00:12:16.152 : :00:12:16.152
00:15:48.865 : :00:15:48.865
00:19:16.364 : :00:19:16.364
00:22:59.503 : :00:22:59.503
00:28:42.554 : :00:28:42.554
00:32:01.753 : :00:32:01.753
00:38:15.001 : :00:38:15.001
00:44:11.607 : :00:44:11.607
00:49:16.078 : :00:49:16.078
00:55:22.069 : :00:55:22.069
00:59:14.384 : :00:59:14.384
01:04:06.551 : :01:04:06.551
01:08:56.424 : :01:08:56.424
01:13:09.802 : :01:13:09.802
01:17:49.248 : :01:17:49.248
01:20:25.654 : :01:20:25.654
01:25:38.467 : :01:25:38.467
01:29:58.602 : :01:29:58.602
01:34:37.547 : :01:34:37.547
01:38:53.010 : :01:38:53.010
01:40:38.324 : :01:40:38.324
Свернуть
"Знаете ли Вы, что..."
  • Изначально фильм назывался «The Bop Decameron», прежде чем его сменили на «Nero Fiddled». Вуди Аллен изменил его, когда понял, что немногие поймут связь со сборником новелл под названием «Декамерон».
  • Анджелина Джоли и Нуми Рапас рассматривались на роль, которую в итоге получила Пенелопа Крус.
  • Аарон Джонсон и Роберт Паттинсон пробовались на роль в фильме.
  • Первый фильм-антология Вуди Аллена, с момента выхода «Нью-Йоркских историй» (1989), где он сделал новеллу «Oedipus Wrecks» (Эдипов комплекс). Это так же первая антология за сорок лет, режиссурой которой от и до занимался только Аллен, с момента выхода «Все, что вы хотели знать о сексе, но боялись спросить» (1972).
  • Первая роль Вуди Аллена спустя 5 снятых им фильмов и 6 лет. Его предыдущая роль была в фильме «Сенсация» (2006).
  • Первое появление в крупном американском релизе Роберто Бениньи после «Пиноккио» (2002), и лишь второе после того, как он получил Оскара за «Жизнь прекрасна» (1997). И так же его первое появление в фильме, продюсером и режиссером которого являются американцы, после «Сын Розовой пантеры» (1993).
Свернуть
Скриншоты

Изображение
Изображение
Изображение
Изображение
Изображение
Изображение
Свернуть
_________________
ИзображениеИзображение Изображение
Изображение
 tany1984 и di-ys1 нравится это.
Не в сети
Профиль  
Начать новую темуОтветить на тему  [ 1 сообщение ] 
Вы не можете начинать темы
Вы не можете отвечать на сообщения
Вы не можете редактировать свои сообщения
Вы не можете удалять свои сообщения