Правила форума

  • В этом разделе создание новых тем Запрещено.
  • Для создания новых тем пользуйтесь Корневым разделом DVD и HD фильмы.
Начать новую темуОтветить на тему  [ 1 сообщение ] 
Торрент файл
Размер: 8.28 GB • Зарегистрирован: 1 год 7 месяцев • Статус: Проверено
Скачан: 50 раз • Желающих скачать: 0 • Поблагодарили: 5 раз
 Раздают: 2  |  0 KB/s  ]   Качают: 0  |  0 KB/s  ] 
Сообщения
 Добавлено: 2015-04-08 09:36
DVD Release Group
Аватара пользователя
Стаж: 7 лет 1 месяц
Сообщений: 3546
Спасибок: 246973
Лайков: 1018
Рио, я люблю тебя

Rio, Eu Te Amo


Изображение


Год выпуска: 2014
Страна: Бразилия, США
Жанр: Фэнтези, драма, мелодрама, комедия
Продолжительность: 01:49:10
Перевод: Профессиональный (полное дублирование)
Субтитры: Английские, испанские, португальские
Режиссер: Висенте Аморим, Гильермо Арриага, Стефан Эллиотт
В ролях: Фернанда Монтенегро, Эдуардо Стерблитч, Режина Казе, Степан Нерцессян, Угу Карвана, Сандро Роча, Эмили Мортимер, Бэзил Хоффман, Венсан Кассель, Марсиу Гарсия, Райан Квантен, Ванесса Паради, Джон Туртурро
Описание: Фильм рассказывает об одном из самых удивительных городов Южной Америки — Рио-де-Жанейро. Режиссеры из разных стран сняли десять коротких историй, которые рассказывают о любви. Каждый эпизод посвящен одному из районов города, которые обладают своими неподражаемыми колоритами.
Изображение
Качество: BDRip 1080p
Формат: MKV
Видео кодек: H.264
Аудио кодек: AC3, DTS
Видео: 1920x1080 24fps 8689kbps
Аудио:
Аудио Rus: AC3 48kHz 6ch 448Kbps
Аудио Eng: DTS 48kHz 6ch 1510Kbps
"MediaInfo"
Формат : Matroska
Версия формата : Version 2
Размер файла : 8,28 Гбайт
Продолжительность : 1 ч. 49 м.
Общий поток : 10,9 Мбит/сек
Дата кодирования : UTC 2015-04-08 01:17:20
Программа кодирования : mkvmerge v7.4.0 ('Circles') 64bit built on Dec 12 2014 12:19:56
Библиотека кодирования : libebml v1.3.0 + libmatroska v1.4.1
DURATION : 01:49:10.750000000
NUMBER_OF_FRAMES : 157218
NUMBER_OF_BYTES : 7277512036
_STATISTICS_WRITING_APP : mkvmerge v7.4.0 ('Circles') 64bit built on Dec 12 2014 12:19:56
_STATISTICS_WRITING_DATE_UTC : 2015-04-08 01:17:20
_STATISTICS_TAGS : BPS DURATION NUMBER_OF_FRAMES NUMBER_OF_BYTES

Видео
Идентификатор : 1
Формат : AVC
Формат/Информация : Advanced Video Codec
Профиль формата : High@L4.1
Параметр CABAC формата : Да
Параметр ReFrames формата : 4 кадра
Идентификатор кодека : V_MPEG4/ISO/AVC
Продолжительность : 1 ч. 49 м.
Битрейт : 8689 Кбит/сек
Ширина : 1920 пикселей
Высота : 1080 пикселей
Соотношение сторон : 16:9
Режим частоты кадров : Постоянный
Частота кадров : 24,000 кадра/сек
Цветовое пространство : YUV
Субдискретизация насыщенности : 4:2:0
Битовая глубина : 8 бит
Тип развёртки : Прогрессивная
Бит/(Пиксели*Кадры) : 0.175
Размер потока : 6,63 Гбайт (80%)
Default : Да
Forced : Нет

Аудио #1
Идентификатор : 2
Формат : AC-3
Формат/Информация : Audio Coding 3
Расширение режима : CM (complete main)
Параметр Endianness формата : Big
Идентификатор кодека : A_AC3
Продолжительность : 1 ч. 49 м.
Вид битрейта : Постоянный
Битрейт : 448 Кбит/сек
Каналы : 6 каналов
Расположение каналов : Front: L C R, Side: L R, LFE
Частота : 48,0 КГц
Битовая глубина : 16 бит
Метод сжатия : С потерями
Размер потока : 350 Мбайт (4%)
Язык : Russian
Default : Да
Forced : Нет

Аудио #2
Идентификатор : 3
Формат : DTS
Формат/Информация : Digital Theater Systems
Режим : 16
Параметр Endianness формата : Big
Идентификатор кодека : A_DTS
Продолжительность : 1 ч. 49 м.
Вид битрейта : Постоянный
Битрейт : 1509 Кбит/сек
Каналы : 6 каналов
Расположение каналов : Front: L C R, Side: L R, LFE
Частота : 48,0 КГц
Битовая глубина : 24 бит
Метод сжатия : С потерями
Размер потока : 1,15 Гбайт (14%)
Язык : Portuguese
Default : Нет
Forced : Нет

Текст #1
Идентификатор : 4
Формат : PGS
Режим смешивания : zlib
Идентификатор кодека : S_HDMV/PGS
Идентификатор кодека/Информация : The same subtitle format used on BDs/HD-DVDs
Язык : English
Default : Нет
Forced : Нет

Текст #2
Идентификатор : 5
Формат : PGS
Режим смешивания : zlib
Идентификатор кодека : S_HDMV/PGS
Идентификатор кодека/Информация : The same subtitle format used on BDs/HD-DVDs
Язык : Spanish
Default : Нет
Forced : Нет

Текст #3
Идентификатор : 6
Формат : PGS
Режим смешивания : zlib
Идентификатор кодека : S_HDMV/PGS
Идентификатор кодека/Информация : The same subtitle format used on BDs/HD-DVDs
Язык : Portuguese
Default : Нет
Forced : Нет

Меню
00:00:00.000 : pt:Chapter 1
00:05:25.041 : pt:Chapter 2
00:13:34.375 : pt:Chapter 3
00:14:54.916 : pt:Chapter 4
00:23:09.958 : pt:Chapter 5
00:24:00.041 : pt:Chapter 6
00:29:58.000 : pt:Chapter 7
00:32:16.458 : pt:Chapter 8
00:39:44.291 : pt:Chapter 9
00:40:17.416 : pt:Chapter 10
00:49:14.500 : pt:Chapter 11
00:50:39.333 : pt:Chapter 12
00:58:35.125 : pt:Chapter 13
01:02:06.500 : pt:Chapter 14
01:09:42.583 : pt:Chapter 15
01:11:12.000 : pt:Chapter 16
01:18:20.625 : pt:Chapter 17
01:25:21.250 : pt:Chapter 18
01:26:07.166 : pt:Chapter 19
01:34:26.458 : pt:Chapter 20
01:49:09.708 : pt:Chapter 21
Свернуть

"Скриншоты"
Изображение
Изображение
Изображение
Свернуть
Не в сети
Профиль  
Начать новую темуОтветить на тему  [ 1 сообщение ] 
Вы не можете начинать темы
Вы не можете отвечать на сообщения
Вы не можете редактировать свои сообщения
Вы не можете удалять свои сообщения