Правила форума

  • В этом разделе создание новых тем Запрещено.
  • Для создания новых тем пользуйтесь Корневым разделом DVD и HD фильмы.
Начать новую темуОтветить на тему  [ Сообщений: 3 ] 
Торрент файл
Размер: 17.35 GB • Зарегистрирован: 3 года 8 месяцев • Статус: Проверено
Скачан: 91 раз • Желающих скачать: 0 • Поблагодарили: 27 раз
 Раздают: 0  |  0 KB/s  ]   Качают: 0  |  0 KB/s  ] 
 Полного источника не было 3 месяца 21 день 
Сообщения
 Добавлено: 2013-03-13 13:47
Аватара пользователя
Стаж: 9 лет 1 месяц
Сообщений: 7950
Спасибок: 122174
Лайков: 1191
Ржавчина и кость / De rouille et d'os

Изображение


Год выпуска: 2012
Страна: Изображение Франция Изображение Бельгия
Жанр: драма, мелодрама
Продолжительность: 02:02:09
Субтитры: Русские, украинские, английские
Перевод: Профессиональный (многоголосый, закадровый) [Лицензия] + Авторский (одноголосый) [Дасевич]


Режиссёр: Жак Одиар
Сценарист: Жак Одиар, Тома Бидеген, Крэйг Дэвидсон
Продюсер: Жак Одиар, Мартин Кассинелли, Паскаль Кочето
Оператор: Стефан Фонтен
Композитор: Александр Депла

В ролях: Марион Котийяр, Маттиас Шонартс, Арман Вердюр, Селин Саллетт, Корина Масьеро, Боли Ланнерс, Жан-Мишель Коррейя, Мурад Фрарема, Янник Шуара, Фред Мену, Дункан Верстиг, Катя Шаперо, Катрин Фа, Андез Лопес Жабуа, Океане Картиа, Франсуаза Мико, Ирина Които, Дэвид Биллу, Фабьен Л’Аллен, Фабьен Баиарди, Летиция Мальбранк, Суляне Раджраджи, Паскаль Розан, Хеди Туихри, Натали Миллар, Анн-Мари Тома

Описание: История начинается на севере Франции. Али остается один без жилья, без денег, без друзей со своим пятилетним сыном Самом, которого он совсем не знает. Тогда он перебирается в Антибы, на юг, к своей сестре. Кажется, жизнь начинает налаживаться. Сестра отдает в их распоряжение гараж, занимается ребенком, а на улице всегда хорошая погода. Драка в ночном клубе сталкивает его со Стефани. Он провожает ее домой и оставляет свой номер телефона. Он беден, она красива и полна уверенности в себе. Настоящая принцесса. У них нет ничего общего. Стефани работает дрессировщицей касаток в парке Marineland. Только представление, завершившееся трагедией, способно объединить их судьбы. Теперь Али видит Стефани в инвалидной коляске: ей ампутировали ноги. Трагедия унесла с собой и прежние иллюзии. Али будет ей помогать, не показывая ни жалости, ни сострадания, — только так девушка сможет начать новую жизнь.

Изображение Изображение

Качество: BDRip (1080p)
Формат: Matroska
Видео: MPEG-4 AVC, 18.0 Мбит/с, 1920x800, 24.000 кадр/с
Аудио №1: Русский (AC3, 48,0 КГц, 6 ch, 384 Кбит/с) Лицензия
Аудио №2: Русский (AC3, 48,0 КГц, 6 ch, 448 Кбит/с) Дасевич
Аудио №3: Французский (DTS, 48,0 КГц, 6 ch, 1509 Кбит/c)

MediaInfo
Общее
Уникальный идентификатор : 186319627444348049068085625672016002821 (0x8C2BDADF7583B9BB857CB32A635AFF05)
Полное имя : C:\Фильмы\Rzhavchina.i.Kost.2012.x264.BDRip.1080p.nntt.org
Формат : Matroska
Версия формата : Version 2
Размер файла : 17,4 Гбайт
Продолжительность : 2 ч. 2 м.
Общий поток : 20,3 Мбит/сек
Название фильма : Respector
Дата кодирования : UTC 2013-03-13 01:33:40
Программа кодирования : mkvmerge v5.5.0 ('Healer') built on Apr 24 2012 23:47:03
Библиотека кодирования : libebml v1.2.3 + libmatroska v1.3.0

Видео
Идентификатор : 1
Формат : AVC
Формат/Информация : Advanced Video Codec
Профиль формата : High@L4.1
Параметр CABAC формата : Да
Параметр ReFrames формата : 5 кадров
Идентификатор кодека : V_MPEG4/ISO/AVC
Продолжительность : 2 ч. 2 м.
Битрейт : 18,0 Мбит/сек
Ширина : 1920 пикселей
Высота : 800 пикселей
Соотношение сторон : 2,40:1
Режим частоты кадров : Постоянный
Частота кадров : 24,000 кадра/сек
Цветовое пространство : YUV
Субдискретизация насыщенности : 4:2:0
Битовая глубина : 8 бит
Тип развёртки : Прогрессивная
Бит/(Пиксели*Кадры) : 0.488
Размер потока : 15,0 Гбайт (86%)
Библиотека кодирования : x264 core 125 r2200 999b753
Настройки программы : cabac=1 / ref=5 / deblock=1:-3:-3 / analyse=0x3:0x113 / me=tesa / subme=11 / psy=1 / psy_rd=1.25:0.00 / mixed_ref=1 / me_range=16 / chroma_me=1 / trellis=2 / 8x8dct=1 / cqm=0 / deadzone=21,11 / fast_pskip=0 / chroma_qp_offset=-2 / threads=12 / lookahead_threads=2 / sliced_threads=0 / nr=0 / decimate=0 / interlaced=0 / bluray_compat=0 / constrained_intra=0 / bframes=7 / b_pyramid=2 / b_adapt=2 / b_bias=0 / direct=3 / weightb=1 / open_gop=0 / weightp=2 / keyint=240 / keyint_min=24 / scenecut=40 / intra_refresh=0 / rc=2pass / mbtree=0 / bitrate=18000 / ratetol=1.0 / qcomp=0.70 / qpmin=0 / qpmax=69 / qpstep=4 / cplxblur=20.0 / qblur=0.5 / ip_ratio=1.40 / pb_ratio=1.30 / aq=1:0.67
Язык : English
Default : Да
Forced : Нет

Аудио #1
Идентификатор : 2
Формат : AC-3
Формат/Информация : Audio Coding 3
Расширение режима : CM (complete main)
Параметр Endianness формата : Big
Идентификатор кодека : A_AC3
Продолжительность : 2 ч. 2 м.
Вид битрейта : Постоянный
Битрейт : 384 Кбит/сек
Каналы : 6 каналов
Расположение каналов : Front: L C R, Side: L R, LFE
Частота : 48,0 КГц
Битовая глубина : 16 бит
Метод сжатия : С потерями
Размер потока : 336 Мбайт (2%)
Заголовок : MVO
Язык : Russian
Default : Да
Forced : Да

Аудио #2
Идентификатор : 3
Формат : AC-3
Формат/Информация : Audio Coding 3
Расширение режима : CM (complete main)
Параметр Endianness формата : Big
Идентификатор кодека : A_AC3
Продолжительность : 2 ч. 2 м.
Вид битрейта : Постоянный
Битрейт : 448 Кбит/сек
Каналы : 6 каналов
Расположение каналов : Front: L C R, Side: L R, LFE
Частота : 48,0 КГц
Битовая глубина : 16 бит
Метод сжатия : С потерями
Размер потока : 392 Мбайт (2%)
Заголовок : Dasevich
Язык : Russian
Default : Нет
Forced : Нет

Аудио #3
Идентификатор : 4
Формат : DTS
Формат/Информация : Digital Theater Systems
Режим : 16
Параметр Endianness формата : Big
Идентификатор кодека : A_DTS
Продолжительность : 2 ч. 2 м.
Вид битрейта : Постоянный
Битрейт : 1509 Кбит/сек
Каналы : 6 каналов
Расположение каналов : Front: L C R, Side: L R, LFE
Частота : 48,0 КГц
Битовая глубина : 16 бит
Метод сжатия : С потерями
Размер потока : 1,29 Гбайт (7%)
Язык : French
Default : Нет
Forced : Нет

Текст #1
Идентификатор : 5
Формат : UTF-8
Идентификатор кодека : S_TEXT/UTF8
Идентификатор кодека/Информация : UTF-8 Plain Text
Заголовок : Full
Язык : Russian
Default : Нет
Forced : Нет

Текст #2
Идентификатор : 6
Формат : UTF-8
Идентификатор кодека : S_TEXT/UTF8
Идентификатор кодека/Информация : UTF-8 Plain Text
Заголовок : Full
Язык : Russian
Default : Нет
Forced : Нет

Текст #3
Идентификатор : 7
Формат : UTF-8
Идентификатор кодека : S_TEXT/UTF8
Идентификатор кодека/Информация : UTF-8 Plain Text
Заголовок : Full
Язык : Ukrainian
Default : Нет
Forced : Нет

Текст #4
Идентификатор : 8
Формат : UTF-8
Идентификатор кодека : S_TEXT/UTF8
Идентификатор кодека/Информация : UTF-8 Plain Text
Заголовок : Full
Язык : English
Default : Нет
Forced : Нет

Меню
00:00:00.000 : en:00:00:00.000
00:11:16.667 : en:00:11:16.667
00:18:44.292 : en:00:18:44.292
00:30:12.250 : en:00:30:12.250
00:39:19.792 : en:00:39:19.792
00:49:35.292 : en:00:49:35.292
00:59:25.292 : en:00:59:25.292
01:11:04.208 : en:01:11:04.208
01:21:56.500 : en:01:21:56.500
01:31:13.625 : en:01:31:13.625
01:41:02.708 : en:01:41:02.708
01:49:31.500 : en:01:49:31.500
Свернуть
Знаете ли вы, что...
Съёмки фильма стартовали в октябре 2011 года и проходили на протяжении двух месяцев в Антибе, Каннах, Бельгии, Париже и северной Франции.

Для демонстрации ампутированных ног у главной героини, Котийяр пришлось носить специальные зелёные гольфы, которые позже были обработаны на компьютере.

Фильм основан на рассказах «Ржавчина и кость» (Rust and Bone) и «Верхом на ракете» (Rocket Ride) из сборника «Ржавчина и кость» канадского автора Крэйга Дэвидсона. В книге мужчина теряет ноги после нападения касатки, но режиссер Жак Одиар решил сделать этого персонажа женщиной, потому что считал, что достаточно мужчин было в его предыдущем фильме «Пророк» (2009).

Первоначально режиссер Жак Одиар не хотел, чтобы роль Али играл профессиональный актер, и он начал поиски кандидатов на эту роль в тренажерных залах и боксерских клубах. После безуспешного прослушивания более 200 человек Одиар посмотрел фильм «Бычара» (2011) и предложил эту роль Маттиасу Шонартсу, которому она в итоге и отошла.

Для подготовки к своей роли Марион Котийяр брала уроки по плаванию и провела неделю в Marineland, чтобы научиться управлять касатками.

Марион Котийяр одновременно снималась в фильмах «Ржавчина и кость» (2012) и «Темный рыцарь: Возрождение легенды» (2012).

Во время своего интервью на «Ночном шоу с Джейем Лено» (1992) Марион Котийяр рассказала, что во время съемок в море, вышла из строя камера, и потребовалось время, чтобы починить ее. И пока она ждала в холодной воде, ее ужалила медуза.

Марион Котийяр и Маттиас Шонартс впервые встретились за три недели до начала съемок, во время чтения сценария в доме Жака Одиара.

Марион Котийяр всегда утверждала, что ненавидит съемки сексуальных сцен, которые для нее являются худшей частью актерской профессии, но в этом фильме она впервые получала от них удовольствие. Она сказала: «Обычно я дрожу, чувствую себя очень плохо, и большую часть времени хочу разрыдаться, так я ненавижу эти сцены. Но в этот раз было совершенно по-другому. Я была так сильно погружена в своего персонажа, что была бы рада, если бы она могла насладиться чем-то подобным. Этот фильм о любви, о плоти, о ржавчине и кости, сердце и сексе, так что без сексуальных сцен было бы ощущение, что фильму чего-то не хватает».

Свернуть
Скриншоты
Изображение
Изображение
Изображение
Изображение
Свернуть
В сети
Профиль  
 Добавлено: 2013-03-16 15:44 (спустя 3 дня)
Аватара пользователя
Стаж: 6 лет 3 месяца
Сообщений: 26
с таким названием, фильм должен быть комедией :-D
Не в сети
Профиль  
 Добавлено: 2013-03-17 20:28 (спустя 1 день 4 часа)
Аватара пользователя
Стаж: 8 лет 11 месяцев
Возраст: 27
Сообщений: 142
Спасибок: 306
Лайков: 1
наверно слезный фильм
Не в сети
Профиль  
Начать новую темуОтветить на тему  [ Сообщений: 3 ] 
Вы не можете начинать темы
Вы не можете отвечать на сообщения
Вы не можете редактировать свои сообщения
Вы не можете удалять свои сообщения