Правила форума

  • В этом разделе создание новых тем Запрещено.
  • Для создания новых тем пользуйтесь Корневым разделом DVD и HD фильмы.
Начать новую темуОтветить на тему  [ Сообщений: 2 ] 
Торрент файл
Размер: 13.85 GB • Зарегистрирован: 4 года 4 месяца • Статус: Проверено
Скачан: 11 раз • Желающих скачать: 0 • Поблагодарили: 6 раз
 Раздают: 0  |  0 KB/s  ]   Качают: 0  |  0 KB/s  ] 
 Полного источника не было 3 года 2 месяца 
Сообщения
 Добавлено: 2012-07-08 10:06
Top-releaser
Аватара пользователя
Стаж: 6 лет 7 месяцев
Сообщений: 2078
Спасибок: 3230
Лайков: 9
Робин Гуд: Принц Воров / Robin Hood: Prince of Thieves

Изображение


Год выпуска: 1991
Страна: США
Жанр: приключения, исторический, мелодрама, драма
Продолжительность: 02:35:03
Перевод: Профессиональный (многоголосый, закадровый) + одноголосый (Ю. Живов)

Режиссёр: Кевин Рейнолдс
В ролях: Кевин Костнер / Kevin Costner, Морган Фриман / Morgan Freeman, Мэри Элизабет Мастрантонио / Mary Elizabeth Mastrantonio, Кристиан Слейтер / Christian Slater, Элан Рикмэн / Alan Rickman, Джералдин МакЮэн / Geraldine McEwan, Майкл МакШэйн / Michael McShane
Описание: Немногие вернулись из Крестового похода. Робину из Локсли, чтобы избежать гибели в заточении у неверных, пришлось воспользоваться помощью одного из узников-мусульман: религиозных врагов сплотило общее несчастье. Но самые большие угрозы ожидают героя со стороны единоверцев: английский трон захвачен самозванцем!
Только зеленый лес, только потерявшие все, и готовые на все друзья, только вера в свою правоту помогут Робину выстоять в неравной борьбе. А его врагов заставят содрогаться от зловещего свиста летящих ниоткуда метких стрел.

Раздача группы: Изображение

Качество: BDRip, 1080p
Формат: MKV
Видео кодек: H.264
Аудио кодек: AC3, DTS, FLAC
Видео: 1920x1080, AVC High@L4.1, 9236 Kbps, 23.976 fps
Аудио #1: Русский DD 5.1 @ 384 Kbps (многоголоска)
Аудио #2: Русский DTS @ 768 Kbps (одноголосый - Ю. Живов)
Аудио #3: Английский DD 5.1 @ 640 Kbps [отдельно]
Аудио #4: Английский FLAC @ 1492 Kbps [отдельно]
Субтитры: SRT: русские, английские [отдельными файлами]

MediaInfo
Общее
Уникальный идентификатор : 224901335917980314606839633915278283944 (0xA9326BF700B533899E2E6225588054A8)
Полное имя : Z:\WWW\TR-Downloads\Robin.Hood.Prince.of.Thieves.1080p[R.G.Daredevil]\Robin.Hood.Prince.of.Thieves.1080p.mkv
Формат : Matroska
Версия формата : Version 2
Размер файла : 11,5 Гбайт
Продолжительность : 2 ч. 35 м.
Общий поток : 10,6 Мбит/сек
Название фильма : GreenRay
Дата кодирования : UTC 2009-06-06 09:02:32
Программа кодирования : mkvmerge v2.8.0 ('The Tree') built on May 9 2009 18:02:06
Библиотека кодирования : libebml v0.7.7 + libmatroska v0.8.1

Видео
Идентификатор : 1
Формат : AVC
Формат/Информация : Advanced Video Codec
Профиль формата : High@L4.1
Параметр CABAC формата : Да
Параметр ReFrames формата : 4 кадра
Идентификатор кодека : V_MPEG4/ISO/AVC
Продолжительность : 2 ч. 35 м.
Битрейт : 9450 Кбит/сек
Ширина : 1920 пикселей
Высота : 1080 пикселей
Соотношение сторон : 16:9
Частота кадров : 23,976 кадра/сек
Цветовое пространство : YUV
Субдискретизация насыщенности : 4:2:0
Битовая глубина : 8 бит
Тип развёртки : Прогрессивная
Бит/(Пиксели*Кадры) : 0.190
Размер потока : 10,0 Гбайт (87%)
Библиотека кодирования : x264 core 67 r1162M f7bfcfa
Настройки программы : cabac=1 / ref=4 / deblock=1:-2:-2 / analyse=0x3:0x113 / me=umh / subme=9 / psy_rd=0.8:0.1 / mixed_ref=1 / me_range=32 / chroma_me=1 / trellis=2 / 8x8dct=1 / cqm=0 / deadzone=21,11 / chroma_qp_offset=-3 / threads=6 / nr=0 / decimate=0 / mbaff=0 / bframes=5 / b_pyramid=1 / b_adapt=2 / b_bias=0 / direct=3 / wpredb=1 / keyint=250 / keyint_min=25 / scenecut=40 / rc=2pass / bitrate=9450 / ratetol=1.0 / qcomp=0.60 / qpmin=10 / qpmax=51 / qpstep=4 / cplxblur=20.0 / qblur=0.5 / vbv_maxrate=50000 / vbv_bufsize=50000 / ip_ratio=1.40 / pb_ratio=1.30 / aq=1:1.00
Язык : English
Default : Да
Forced : Нет

Аудио #1
Идентификатор : 2
Формат : AC-3
Формат/Информация : Audio Coding 3
Расширение режима : CM (complete main)
Параметр Endianness формата : Big
Идентификатор кодека : A_AC3
Продолжительность : 2 ч. 35 м.
Вид битрейта : Постоянный
Битрейт : 384 Кбит/сек
Каналы : 6 каналов
Расположение каналов : Front: L C R, Side: L R, LFE
Частота : 48,0 КГц
Битовая глубина : 16 бит
Метод сжатия : С потерями
Задержка видео : 2 с. 50 мс.
Размер потока : 426 Мбайт (4%)
Заголовок : DD 5.1 @ 384 Kbps MVO
Язык : Russian
Default : Да
Forced : Нет

Аудио #2
Идентификатор : 3
Формат : DTS
Формат/Информация : Digital Theater Systems
Идентификатор кодека : A_DTS
Продолжительность : 2 ч. 35 м.
Вид битрейта : Постоянный
Битрейт : 755 Кбит/сек
Каналы : 6 каналов
Расположение каналов : Front: L C R, Side: L R, LFE
Частота : 48,0 КГц
Битовая глубина : 24 бит
Метод сжатия : С потерями
Задержка видео : 2 с. 50 мс.
Размер потока : 837 Мбайт (7%)
Заголовок : DTS @ 768 Kbps Zhivov
Язык : Russian
Default : Нет
Forced : Нет
Свернуть
Скриншоты
Изображение

Изображение

Изображение

Изображение
Свернуть
Не в сети
Профиль  
 Добавлено: 2013-03-18 19:15 (спустя 8 месяцев)
Аватара пользователя
Стаж: 8 лет 1 месяц
Возраст: 26
Сообщений: 132
Лайков: 1
:ry_car: :ry_car: :ry_car: НАРД, ВСТАНЬТЕ ПОЖАЛУСТО НА РАЗДАЧУ, ПИШИТ НЕДЕЛЮ КАЧАТЬСЯ БУДИТ :ry_car: :ry_car: :ry_car:
Не в сети
Профиль  
Начать новую темуОтветить на тему  [ Сообщений: 2 ] 
Вы не можете начинать темы
Вы не можете отвечать на сообщения
Вы не можете редактировать свои сообщения
Вы не можете удалять свои сообщения