Правила форума

  • В этом разделе создание новых тем Запрещено.
  • Для создания новых тем пользуйтесь Корневым разделом DVD и HD фильмы.
Начать новую темуОтветить на тему  [ 1 сообщение ] 
Торрент файл
Размер: 9.19 GB • Зарегистрирован: 4 года 4 месяца • Статус: Проверено
Скачан: 14 раз • Желающих скачать: 0 • Поблагодарили: 2 раза
 Раздают: 0  |  0 KB/s  ]   Качают: 0  |  0 KB/s  ] 
 Полного источника не было 3 года 2 месяца 
Сообщения
 Добавлено: 2012-07-08 10:31
Top-releaser
Аватара пользователя
Стаж: 6 лет 7 месяцев
Сообщений: 2078
Спасибок: 3230
Лайков: 9
Робин Гуд: Принц Воров / Robin Hood: Prince of Thieves

Изображение


Год выпуска: 1991
Страна: США
Жанр: приключения, исторический, мелодрама, драма
Продолжительность: 02:35:07
Перевод: Профессиональный (многоголосый, закадровый) + одноголосый (Ю. Живов)

Режиссёр: Кевин Рейнолдс
В ролях: Кевин Костнер / Kevin Costner, Морган Фриман / Morgan Freeman, Мэри Элизабет Мастрантонио / Mary Elizabeth Mastrantonio, Кристиан Слейтер / Christian Slater, Элан Рикмэн / Alan Rickman, Джералдин МакЮэн / Geraldine McEwan, Майкл МакШэйн / Michael McShane
Описание: Немногие вернулись из Крестового похода. Робину из Локсли, чтобы избежать гибели в заточении у неверных, пришлось воспользоваться помощью одного из узников-мусульман: религиозных врагов сплотило общее несчастье. Но самые большие угрозы ожидают героя со стороны единоверцев: английский трон захвачен самозванцем!
Только зеленый лес, только потерявшие все, и готовые на все друзья, только вера в свою правоту помогут Робину выстоять в неравной борьбе. А его врагов заставят содрогаться от зловещего свиста летящих ниоткуда метких стрел.

Раздача группы: Изображение

Качество: BDRip, 720p
Формат: MKV
Видео кодек: H.264
Аудио кодек: AC3, DTS
Видео: 1280x720, 23.976, x.264 [L4.1], 6550 kbps
Аудио #1: Russian AC3 5.1, 384 kbps (Киномания)
Аудио #2: Russian: DTS 5.1, 768 kbps (одноголосый - Ю. Живов)
Аудио #3: English: AC3 5.1, 640 kbps
Субтитры: Russian, English, Danish, Finnish, French, German, Italian, Norwegian, Spanish, Swedish

А знаете ли вы что...
► По слухам, Кевин Костнер хотел говорить в фильме с английским акцентом, но режиссер Кевин Рейнольдс не позволил ему это сделать. Костнер же утверждает, что от акцента пришлось отказаться потому, что он так и не смог достаточно хорошо его имитировать.
► Шон Коннери, сыгравший короля Ричарда, получил за два съемочных дня $ 250 000. Эти деньги он пожертвовал на благотворительность.
► Роль шерифа Ноттингемского была первоначально предложена Ричарду Гранту. В итоге же она досталась Алану Рикману.
► В сцене у водопада, где Робин Гуд появляется обнаженным, Кевина Костнера подменял дублер.
► Сценарий фильма, написанный Пеом Демшамом и Джоном Уотсоном, был приобретен за $1.2 млн.
► Роль Мэриан была предназначена актрисе Робин Райт Пенн, но она выбыла из проекта из-за беременности. Мэри Элизабет Мастрантонио получила эту роль лишь за четыре дня до начала съемок.
► Шону Коннери было сначала предложено исполнить эпизодическую роль лорда Локсли, но он от нее отказался, поскольку считал, что за последние годы сыграл слишком много отцов.
► Во время съемок нападения кельтов один и тот же каскадер изображал разных людей, которых убивали.
► В одной из британских телепередач Мэл Гибсон признался в том, что ему предлагали главную роль, но он отказался, поскольку недавно сыграл Гамлета.
► Фильм был номинирован на «Оскар» и «Золотой глобус» в категории «Лучшая песня».
► За лучшую мужскую роль второго плана Алан Рикман был отмечен премией Британской киноакадемии BAFTA и премией лондонских кинокритиков. Кевину Костнеру присудили «Золотую малину» за худшую мужскую роль, а Кристиан Слейтер был номинирован на эту премию в категории «Худший актер второго плана».
► Сцена, в которой Робин Гуд передает телескоп Азиму, схожа со сценой в «Танцах с волками» (1990), где Данбар (Костнер) передает телескоп Бьющейся Птице.
Свернуть
MediaInfo
Общее
Уникальный идентификатор : 226966629666097786637543103431595847843 (0xAAC02ECEEF0AF345925D6D2768A4F0A3)
Полное имя : Z:\WWW\TR-Downloads\Robin.Hood.Prince.of.Thieves.720p[R.G.Daredevil]\Robin.Hood.Prince.of.Thieves.720p.mkv
Формат : Matroska
Версия формата : Version 2
Размер файла : 8,37 Гбайт
Продолжительность : 2 ч. 35 м.
Общий поток : 7728 Кбит/сек
Дата кодирования : UTC 2009-07-05 12:51:41
Программа кодирования : mkvmerge v2.9.5 ('Tu es le seul') built on Jun 7 2009 11:07:07
Библиотека кодирования : libebml v0.7.7 + libmatroska v0.8.1

Видео
Идентификатор : 1
Формат : AVC
Формат/Информация : Advanced Video Codec
Профиль формата : High@L4.1
Параметр CABAC формата : Да
Параметр ReFrames формата : 9 кадров
Идентификатор кодека : V_MPEG4/ISO/AVC
Продолжительность : 2 ч. 35 м.
Битрейт : 6706 Кбит/сек
Ширина : 1280 пикселей
Высота : 720 пикселей
Соотношение сторон : 16:9
Частота кадров : 23,976 кадра/сек
Цветовое пространство : YUV
Субдискретизация насыщенности : 4:2:0
Битовая глубина : 8 бит
Тип развёртки : Прогрессивная
Бит/(Пиксели*Кадры) : 0.303
Размер потока : 7,10 Гбайт (85%)
Библиотека кодирования : x264 core 67 r1165 6841c5e
Настройки программы : cabac=1 / ref=9 / deblock=1:-3:-3 / analyse=0x3:0x113 / me=umh / subme=9 / psy_rd=1.0:0.7 / mixed_ref=1 / me_range=32 / chroma_me=1 / trellis=2 / 8x8dct=1 / cqm=0 / deadzone=21,11 / chroma_qp_offset=-4 / threads=6 / nr=0 / decimate=1 / mbaff=0 / bframes=4 / b_pyramid=0 / b_adapt=2 / b_bias=0 / direct=3 / wpredb=1 / keyint=250 / keyint_min=25 / scenecut=40 / rc=2pass / bitrate=6706 / ratetol=1.0 / qcomp=0.60 / qpmin=10 / qpmax=51 / qpstep=4 / cplxblur=20.0 / qblur=0.5 / vbv_maxrate=50000 / vbv_bufsize=50000 / ip_ratio=1.40 / pb_ratio=1.30 / aq=1:0.80
Язык : English
Default : Да
Forced : Нет

Аудио #1
Идентификатор : 2
Формат : AC-3
Формат/Информация : Audio Coding 3
Расширение режима : CM (complete main)
Параметр Endianness формата : Big
Идентификатор кодека : A_AC3
Продолжительность : 2 ч. 35 м.
Вид битрейта : Постоянный
Битрейт : 384 Кбит/сек
Каналы : 6 каналов
Расположение каналов : Front: L C R, Side: L R, LFE
Частота : 48,0 КГц
Битовая глубина : 16 бит
Метод сжатия : С потерями
Размер потока : 426 Мбайт (5%)
Заголовок : AC3 5.1, 384 kbps (Киномания)
Язык : Russian
Default : Да
Forced : Нет

Аудио #2
Идентификатор : 3
Формат : AC-3
Формат/Информация : Audio Coding 3
Расширение режима : CM (complete main)
Параметр Endianness формата : Big
Идентификатор кодека : A_AC3
Продолжительность : 2 ч. 35 м.
Вид битрейта : Постоянный
Битрейт : 640 Кбит/сек
Каналы : 6 каналов
Расположение каналов : Front: L C R, Side: L R, LFE
Частота : 48,0 КГц
Битовая глубина : 16 бит
Метод сжатия : С потерями
Размер потока : 710 Мбайт (8%)
Заголовок : AC3 5.1, 640 kbbps
Язык : English
Default : Нет
Forced : Нет

Текст #1
Идентификатор : 4
Формат : UTF-8
Идентификатор кодека : S_TEXT/UTF8
Идентификатор кодека/Информация : UTF-8 Plain Text
Заголовок : Киномания
Язык : Russian
Default : Да
Forced : Нет

Текст #2
Идентификатор : 5
Формат : UTF-8
Идентификатор кодека : S_TEXT/UTF8
Идентификатор кодека/Информация : UTF-8 Plain Text
Язык : English
Default : Нет
Forced : Нет

Текст #3
Идентификатор : 6
Формат : UTF-8
Идентификатор кодека : S_TEXT/UTF8
Идентификатор кодека/Информация : UTF-8 Plain Text
Язык : Danish
Default : Нет
Forced : Нет

Текст #4
Идентификатор : 7
Формат : UTF-8
Идентификатор кодека : S_TEXT/UTF8
Идентификатор кодека/Информация : UTF-8 Plain Text
Язык : Finnish
Default : Нет
Forced : Нет

Текст #5
Идентификатор : 8
Формат : UTF-8
Идентификатор кодека : S_TEXT/UTF8
Идентификатор кодека/Информация : UTF-8 Plain Text
Язык : French
Default : Нет
Forced : Нет

Текст #6
Идентификатор : 9
Формат : UTF-8
Идентификатор кодека : S_TEXT/UTF8
Идентификатор кодека/Информация : UTF-8 Plain Text
Язык : German
Default : Нет
Forced : Нет

Текст #7
Идентификатор : 10
Формат : UTF-8
Идентификатор кодека : S_TEXT/UTF8
Идентификатор кодека/Информация : UTF-8 Plain Text
Язык : Italian
Default : Нет
Forced : Нет

Текст #8
Идентификатор : 11
Формат : UTF-8
Идентификатор кодека : S_TEXT/UTF8
Идентификатор кодека/Информация : UTF-8 Plain Text
Язык : Norwegian
Default : Нет
Forced : Нет

Текст #9
Идентификатор : 12
Формат : UTF-8
Идентификатор кодека : S_TEXT/UTF8
Идентификатор кодека/Информация : UTF-8 Plain Text
Язык : Spanish
Default : Нет
Forced : Нет

Текст #10
Идентификатор : 13
Формат : UTF-8
Идентификатор кодека : S_TEXT/UTF8
Идентификатор кодека/Информация : UTF-8 Plain Text
Язык : Swedish
Default : Нет
Forced : Нет
Свернуть
Скриншоты
Изображение

Изображение

Изображение

Изображение
Свернуть
Не в сети
Профиль  
Начать новую темуОтветить на тему  [ 1 сообщение ] 
Вы не можете начинать темы
Вы не можете отвечать на сообщения
Вы не можете редактировать свои сообщения
Вы не можете удалять свои сообщения