Правила форума

  • В этом разделе создание новых тем Запрещено.
  • Для создания новых тем пользуйтесь Корневым разделом DVD и HD фильмы.
Начать новую темуОтветить на тему  [ 1 сообщение ] 
Торрент файл
Размер: 8.64 GB • Зарегистрирован: 3 года 9 месяцев • Статус: Проверено
Скачан: 7 раз • Желающих скачать: 0 • Поблагодарили: 2 раза
 Раздают: 0  |  0 KB/s  ]   Качают: 0  |  0 KB/s  ] 
 Полного источника не было 1 месяц 7 дней 
Сообщения
 Добавлено: 2013-02-13 18:32
Top-releaser
Аватара пользователя
Стаж: 6 лет 7 месяцев
Сообщений: 2078
Спасибок: 3230
Лайков: 9
Изображение

Робокоп 2
RoboCop 2


Год выпуска: 1990
Страна: США
Слоган: «Even in the future of law enforcement there is room for improvement.»
Жанр: фантастика, боевик, триллер, криминал
Продолжительность: 01:56:41
Перевод: Профессиональный (полное дублирование)
Режиссер: Ирвин Кершнер
Сценарий: Фрэнк Миллер, Уолон Грин, Эдвард Ноймайер, Майкл Майнер
Продюсер: Джон Дэвисон, Джейн Бартелм, Патрик Краули, Фил Типпетт
Оператор: Марк Ирвин
Композитор: Леонард Розенман
В ролях: Питер Уэллер, Нэнси Аллен, Дэн О’Херлихи, Том Нунен, Белинда Бауэр, Гэбриел Дэймон, Джон Гловер, Марио Мачадо, Лиза Гиббонс, Джон Ингл, Роджер Аарон Браун, Марк Ролстон
Бюджет: $35 000 000
Сборы в США: $45 681 173
Мировая премьера: 22 июня 1990
Релиз на Blu-ray: 21 октября 2010, «Двадцатый Век Фокс СНГ»
Описание: Робот - полицейский продолжает патрулировать улицы Детройта. На этот раз ему предстоит уничтожить фабрику, которая незаконно производит новый вид наркотиков, а также сразиться с роботом - убийцей, созданным в секретной лаборатории, чтобы убрать Робокопа.
Раздача группы:
Изображение

Изображение User Rating: 6.834 (8390)
Изображение User Rating: 5.50 (35 151)
MPAA: R - Лицам до 17 лет обязательно присутствие взрослого
Качество: BDRip, 720p
Формат: MKV
Видео: AVC; 1280x694 (16:9); 6250 Kbps; 23,976 fps; 0,293 bit/pixel
Аудио №1: русский; AC3; 448 Kbps; CBR; 6 ch |Дубляж|
Аудио №2: русский; AC3; 448 Kbps; CBR; 6 ch |Многоголосый, Киномания (Супербит)|
Аудио №3: русский; AC3; 448 Kbps; CBR; 6 ch |Авторский, Гаврилов|
Аудио №4: русский; AC3; 448 Kbps; CBR; 6 ch |Авторский, Карцев|
Аудио №5: русский; AC3; 192 Kbps; CBR; 2 ch |Авторский, Поздняков|
Аудио №6: русский; AC3; 448 Kbps; CBR; 6 ch |Многоголосый, НТВ|
Аудио №7: русский; AC3; 192 Kbps; CBR; 2 ch |Многоголосый, СТС|
Аудио №8: английский; DTS; 1510 Kbps; CBR; 6 ch; 24 bit

Субтитры: русские, английские
mediainfo
Общее
Уникальный идентификатор : 193899846639775359603287502072331159585 (0x91DFC088ADF381C08C0CC9FA0768C821)
Полное имя : Z:\WWW\TR-Downloads\Robocop2.1990.BluRay.720p.DTS.x264-CHD.mkv
Формат : Matroska
Версия формата : Version 2
Размер файла : 8,64 Гбайт
Продолжительность : 1 ч. 56 м.
Общий поток : 10,6 Мбит/сек
Дата кодирования : UTC 2010-09-28 16:01:41
Программа кодирования : mkvmerge v4.1.1 ('Bouncin' Back') сборка от Jul 3 2010 22:54:08
Библиотека кодирования : libebml v1.0.0 + libmatroska v1.0.0

Видео
Идентификатор : 1
Формат : AVC
Формат/Информация : Advanced Video Codec
Профиль формата : High@L4.1
Параметр CABAC формата : Да
Параметр ReFrames формата : 8 кадров
Идентификатор кодека : V_MPEG4/ISO/AVC
Продолжительность : 1 ч. 56 м.
Битрейт : 6468 Кбит/сек
Ширина : 1280 пикселей
Высота : 694 пикселя
Соотношение сторон : 1,85:1
Частота кадров : 23,976 кадра/сек
Цветовое пространство : YUV
Субдискретизация насыщенности : 4:2:0
Битовая глубина : 8 бит
Тип развёртки : Прогрессивная
Бит/(Пиксели*Кадры) : 0.304
Размер потока : 5,09 Гбайт (59%)
Заголовок : MPEG4 x264 1280x694 23.976 fps
Библиотека кодирования : x264 core 102 r1666 d058f37
Настройки программы : cabac=1 / ref=8 / deblock=1:-3:-3 / analyse=0x3:0x113 / me=umh / subme=9 / psy=1 / psy_rd=1.05:0.00 / mixed_ref=1 / me_range=32 / chroma_me=1 / trellis=2 / 8x8dct=1 / cqm=2 / deadzone=21,11 / fast_pskip=0 / chroma_qp_offset=-1 / threads=12 / sliced_threads=0 / nr=0 / decimate=1 / interlaced=0 / constrained_intra=0 / bframes=6 / b_pyramid=2 / b_adapt=2 / b_bias=0 / direct=3 / weightb=1 / open_gop=0 / weightp=2 / keyint=250 / keyint_min=25 / scenecut=40 / intra_refresh=0 / rc_lookahead=50 / rc=2pass / mbtree=1 / bitrate=6468 / ratetol=1.0 / qcomp=0.60 / qpmin=10 / qpmax=51 / qpstep=4 / cplxblur=20.0 / qblur=0.5 / vbv_maxrate=50000 / vbv_bufsize=50000 / ip_ratio=1.40 / aq=1:1.00 / nal_hrd=none
Язык : English
Default : Нет
Forced : Да

Аудио #1
Идентификатор : 2
Формат : AC-3
Формат/Информация : Audio Coding 3
Расширение режима : CM (complete main)
Параметр Endianness формата : Big
Режим смешивания : Header stripping
Идентификатор кодека : A_AC3
Продолжительность : 1 ч. 56 м.
Вид битрейта : Постоянный
Битрейт : 448 Кбит/сек
Каналы : 6 каналов
Расположение каналов : Front: L C R, Side: L R, LFE
Частота : 48,0 КГц
Битовая глубина : 16 бит
Метод сжатия : С потерями
Размер потока : 374 Мбайт (4%)
Заголовок : AC3 , 5.1 , 48Khz , 448 kbps - Дубляж
Язык : Russian
Default : Нет
Forced : Да

Аудио #2
Идентификатор : 3
Формат : AC-3
Формат/Информация : Audio Coding 3
Расширение режима : CM (complete main)
Параметр Endianness формата : Big
Режим смешивания : Header stripping
Идентификатор кодека : A_AC3
Продолжительность : 1 ч. 56 м.
Вид битрейта : Постоянный
Битрейт : 448 Кбит/сек
Каналы : 6 каналов
Расположение каналов : Front: L C R, Side: L R, LFE
Частота : 48,0 КГц
Битовая глубина : 16 бит
Метод сжатия : С потерями
Размер потока : 374 Мбайт (4%)
Заголовок : AC3 , 5.1 , 48Khz , 448 kbps - Многоголосый, Киномания (Супербит)
Язык : Russian
Default : Нет
Forced : Нет

Аудио #3
Идентификатор : 4
Формат : AC-3
Формат/Информация : Audio Coding 3
Расширение режима : CM (complete main)
Параметр Endianness формата : Big
Режим смешивания : Header stripping
Идентификатор кодека : A_AC3
Продолжительность : 1 ч. 56 м.
Вид битрейта : Постоянный
Битрейт : 448 Кбит/сек
Каналы : 6 каналов
Расположение каналов : Front: L C R, Side: L R, LFE
Частота : 48,0 КГц
Битовая глубина : 16 бит
Метод сжатия : С потерями
Размер потока : 374 Мбайт (4%)
Заголовок : AC3 , 5.1 , 48Khz , 448 kbps - Авторский, Гаврилов
Язык : Russian
Default : Нет
Forced : Нет

Аудио #4
Идентификатор : 5
Формат : AC-3
Формат/Информация : Audio Coding 3
Расширение режима : CM (complete main)
Параметр Endianness формата : Big
Режим смешивания : Header stripping
Идентификатор кодека : A_AC3
Продолжительность : 1 ч. 56 м.
Вид битрейта : Постоянный
Битрейт : 448 Кбит/сек
Каналы : 6 каналов
Расположение каналов : Front: L C R, Side: L R, LFE
Частота : 48,0 КГц
Битовая глубина : 16 бит
Метод сжатия : С потерями
Размер потока : 374 Мбайт (4%)
Заголовок : AC3 , 5.1 , 48Khz , 448 kbps - Авторский, Карцев
Язык : Russian
Default : Нет
Forced : Нет

Аудио #5
Идентификатор : 6
Формат : AC-3
Формат/Информация : Audio Coding 3
Расширение режима : CM (complete main)
Параметр Endianness формата : Big
Режим смешивания : Header stripping
Идентификатор кодека : A_AC3
Продолжительность : 1 ч. 56 м.
Вид битрейта : Постоянный
Битрейт : 192 Кбит/сек
Каналы : 2 канала
Расположение каналов : Front: L R
Частота : 48,0 КГц
Битовая глубина : 16 бит
Метод сжатия : С потерями
Размер потока : 160 Мбайт (2%)
Заголовок : MPEG Layer 3, 2 ch, ~256.00 kbps avg - Авторский, Поздняков
Язык : Russian
Default : Нет
Forced : Нет

Аудио #6
Идентификатор : 7
Формат : AC-3
Формат/Информация : Audio Coding 3
Расширение режима : CM (complete main)
Параметр Endianness формата : Big
Режим смешивания : Header stripping
Идентификатор кодека : A_AC3
Продолжительность : 1 ч. 56 м.
Вид битрейта : Постоянный
Битрейт : 448 Кбит/сек
Каналы : 6 каналов
Расположение каналов : Front: L C R, Side: L R, LFE
Частота : 48,0 КГц
Битовая глубина : 16 бит
Метод сжатия : С потерями
Размер потока : 374 Мбайт (4%)
Заголовок : AC3 , 5.1 , 48Khz , 448 kbps - Многоголосый, НТВ
Язык : Russian
Default : Нет
Forced : Нет

Аудио #7
Идентификатор : 8
Формат : AC-3
Формат/Информация : Audio Coding 3
Расширение режима : CM (complete main)
Параметр Endianness формата : Big
Режим смешивания : Header stripping
Идентификатор кодека : A_AC3
Продолжительность : 1 ч. 56 м.
Вид битрейта : Постоянный
Битрейт : 192 Кбит/сек
Каналы : 2 канала
Расположение каналов : Front: L R
Частота : 48,0 КГц
Битовая глубина : 16 бит
Метод сжатия : С потерями
Размер потока : 160 Мбайт (2%)
Заголовок : AC3 , 2.0, 48KHz , 192 kbps - Многоголосый, СТС
Язык : Russian
Default : Нет
Forced : Нет

Аудио #8
Идентификатор : 9
Формат : DTS
Формат/Информация : Digital Theater Systems
Режим смешивания : Header stripping
Идентификатор кодека : A_DTS
Продолжительность : 1 ч. 56 м.
Вид битрейта : Постоянный
Битрейт : 1510 Кбит/сек
Каналы : 6 каналов
Расположение каналов : Front: L C R, Side: L R, LFE
Частота : 48,0 КГц
Битовая глубина : 24 бит
Метод сжатия : С потерями
Размер потока : 1,23 Гбайт (14%)
Заголовок : DTSHD core5.1 1536k - English original
Язык : English
Default : Нет
Forced : Нет

Текст #1
Идентификатор : 10
Формат : UTF-8
Идентификатор кодека : S_TEXT/UTF8
Идентификатор кодека/Информация : UTF-8 Plain Text
Заголовок : HQCLUB Rus sub BD
Язык : Russian
Default : Да
Forced : Нет

Текст #2
Идентификатор : 11
Формат : UTF-8
Идентификатор кодека : S_TEXT/UTF8
Идентификатор кодека/Информация : UTF-8 Plain Text
Заголовок : HQCLUB Rus sub Pozdnyakov
Язык : Russian
Default : Нет
Forced : Нет

Текст #3
Идентификатор : 12
Формат : UTF-8
Идентификатор кодека : S_TEXT/UTF8
Идентификатор кодека/Информация : UTF-8 Plain Text
Заголовок : HQCLUB Eng sub BD
Язык : English
Default : Нет
Forced : Нет
Свернуть
"Знаете ли Вы, что..."
  • Режиссер Ирвин Кершнер заменил Тима Хантера, который выбыл из проекта во время подготовительного периода по причине творческих разногласий.
  • Постановка предлагалась норвежскому режиссеру Нильсу Гаупу, но тот от нее отказался.
  • Несмотря на то что сценарий Фрэнка Миллера очень нравился продюсерам, они вскоре поняли, что снять по нему фильм почти невозможно. Поэтому он был значительно переработан; его окончательная версия имеет мало общего с авторской концепцией Миллера. В 2003 году по сценарию Миллера был создан комикс под названием «Робот-полицейский Фрэнка Миллера».
Свернуть
Скриншоты

Изображение
Изображение
Изображение
Изображение
Изображение
Свернуть
Не в сети
Профиль  
Начать новую темуОтветить на тему  [ 1 сообщение ] 
Вы не можете начинать темы
Вы не можете отвечать на сообщения
Вы не можете редактировать свои сообщения
Вы не можете удалять свои сообщения