Правила форума

  • В этом разделе создание новых тем Запрещено.
  • Для создания новых тем пользуйтесь Корневым разделом DVD и HD фильмы.
Начать новую темуОтветить на тему  [ Сообщений: 2 ] 
Торрент файл
Размер: 16.02 GB • Зарегистрирован: 3 года 9 месяцев • Статус: Проверено
Скачан: 13 раз • Желающих скачать: 0 • Поблагодарили: 10 раз
 Раздают: 0  |  0 KB/s  ]   Качают: 0  |  0 KB/s  ] 
 Полного источника не было 1 год 8 месяцев 
Сообщения
 Добавлено: 2013-02-13 18:49
Top-releaser
Аватара пользователя
Стаж: 6 лет 7 месяцев
Сообщений: 2078
Спасибок: 3230
Лайков: 9
Изображение

Робокоп 2
RoboCop 2


Год выпуска: 1990
Страна: США
Слоган: «Even in the future of law enforcement there is room for improvement.»
Жанр: фантастика, боевик, триллер, криминал
Продолжительность: 01:56:40
Перевод: Профессиональный (многоголосый, закадровый)
Режиссер: Ирвин Кершнер
Сценарий: Фрэнк Миллер, Уолон Грин, Эдвард Ноймайер, Майкл Майнер
Продюсер: Джон Дэвисон, Джейн Бартелм, Патрик Краули, Фил Типпетт
Оператор: Марк Ирвин
Композитор: Леонард Розенман
В ролях: Питер Уэллер, Нэнси Аллен, Дэн О’Херлихи, Том Нунен, Белинда Бауэр, Гэбриел Дэймон, Джон Гловер, Марио Мачадо, Лиза Гиббонс, Джон Ингл, Роджер Аарон Браун, Марк Ролстон
Бюджет: $35 000 000
Сборы в США: $45 681 173
Мировая премьера: 22 июня 1990
Релиз на Blu-ray: 21 октября 2010, «Двадцатый Век Фокс СНГ»
Описание: Робот - полицейский продолжает патрулировать улицы Детройта. На этот раз ему предстоит уничтожить фабрику, которая незаконно производит новый вид наркотиков, а также сразиться с роботом - убийцей, созданным в секретной лаборатории, чтобы убрать Робокопа.
Раздача группы:
Изображение

Изображение User Rating: 6.834 (8390)
Изображение User Rating: 5.50 (35 151)
MPAA: R - Лицам до 17 лет обязательно присутствие взрослого
Качество: BDRip, 1080p
Формат: MKV
Видео: AVC; 1920x1040 (16:9); 13453 Kbps; 23,976 fps; 0,281 bit/pixel
Аудио №1: русский; DTS; 755 Kbps; CBR; 6 ch; 24 bit |Дубляж, с Blu-Ray CEE |
Аудио №2: русский; DTS; 1510 Kbps; CBR; 6 ch; 24 bit |Одноголосый закадровый, А.Гаврилов|
Аудио №3: русский; AC3; 448 Kbps; CBR; 6 ch |Одноголосый закадровый, Пётр Карцев|
Аудио №4: русский; DTS; 755 Kbps; CBR; 6 ch; 24 bit |Многоголосый закадровый, Супербит/Киномания|
Аудио №5: русский; AC3; 448 Kbps; CBR; 6 ch |Двухголосый закадровый, НТВ |
Аудио №6: русский; AC3; 192 Kbps; CBR; 2 ch |Одноголосый закадровый, К.Поздняков|
Аудио №7: русский; AC3; 192 Kbps; CBR; 2 ch |Многоголосый закадровый, СТС|
Аудио №8: английский; DTS; 1510 Kbps; CBR; 6 ch; 24 bit

Субтитры: русские, английские
mediainfo
Общее
Уникальный идентификатор : 208425965814277891268699739306488142023 (0x9CCD61810562CAAC82D6C058572A98C7)
Полное имя : Z:\WWW\TR-Downloads\Robocop.2.1990.BluRay.1080p.DTS.7.Rus.Eng.x264-CHD.mkv
Формат : Matroska
Версия формата : Version 2
Размер файла : 16,0 Гбайт
Продолжительность : 1 ч. 56 м.
Общий поток : 19,7 Мбит/сек
Название фильма : ТыНьО специально для -=RUTRACKER.RU=-
Дата кодирования : UTC 2010-09-27 08:05:00
Программа кодирования : mkvmerge v4.3.0 ('Escape from the Island') сборка от Sep 5 2010 10:30:51
Библиотека кодирования : libebml v1.0.0 + libmatroska v1.0.0

Видео
Идентификатор : 1
Формат : AVC
Формат/Информация : Advanced Video Codec
Профиль формата : High@L4.1
Параметр CABAC формата : Да
Параметр ReFrames формата : 4 кадра
Идентификатор кодека : V_MPEG4/ISO/AVC
Продолжительность : 1 ч. 56 м.
Битрейт : 13,8 Мбит/сек
Ширина : 1920 пикселей
Высота : 1040 пикселей
Соотношение сторон : 1,85:1
Частота кадров : 23,976 кадра/сек
Цветовое пространство : YUV
Субдискретизация насыщенности : 4:2:0
Битовая глубина : 8 бит
Тип развёртки : Прогрессивная
Бит/(Пиксели*Кадры) : 0.289
Размер потока : 11,0 Гбайт (68%)
Заголовок : Robocop.2.1990.BluRay.1080p.DTS.x264-CHD
Библиотека кодирования : x264 core 104 r1703 cd21d05
Настройки программы : cabac=1 / ref=4 / deblock=1:-3:-3 / analyse=0x3:0x113 / me=umh / subme=9 / psy=1 / psy_rd=1.05:0.10 / mixed_ref=1 / me_range=32 / chroma_me=1 / trellis=2 / 8x8dct=1 / cqm=0 / deadzone=21,11 / fast_pskip=0 / chroma_qp_offset=-2 / threads=12 / sliced_threads=0 / nr=0 / decimate=1 / interlaced=0 / constrained_intra=0 / bframes=5 / b_pyramid=2 / b_adapt=2 / b_bias=0 / direct=3 / weightb=1 / open_gop=0 / weightp=2 / keyint=250 / keyint_min=23 / scenecut=40 / intra_refresh=0 / rc_lookahead=60 / rc=2pass / mbtree=1 / bitrate=13842 / ratetol=2.0 / qcomp=0.70 / qpmin=10 / qpmax=51 / qpstep=4 / cplxblur=20.0 / qblur=0.5 / vbv_maxrate=50000 / vbv_bufsize=50000 / ip_ratio=1.40 / aq=1:1.00 / nal_hrd=none
Язык : English
Default : Да
Forced : Нет

Аудио #1
Идентификатор : 2
Формат : DTS
Формат/Информация : Digital Theater Systems
Идентификатор кодека : A_DTS
Продолжительность : 1 ч. 56 м.
Вид битрейта : Постоянный
Битрейт : 755 Кбит/сек
Каналы : 6 каналов
Расположение каналов : Front: L C R, Side: L R, LFE
Частота : 48,0 КГц
Битовая глубина : 24 бит
Метод сжатия : С потерями
Размер потока : 630 Мбайт (4%)
Заголовок : #1 Дубляж с Blu-ray, DTS 5.1 756kbps
Язык : Russian
Default : Нет
Forced : Нет

Аудио #2
Идентификатор : 3
Формат : DTS
Формат/Информация : Digital Theater Systems
Идентификатор кодека : A_DTS
Продолжительность : 1 ч. 56 м.
Вид битрейта : Постоянный
Битрейт : 1510 Кбит/сек
Каналы : 6 каналов
Расположение каналов : Front: L C R, Side: L R, LFE
Частота : 48,0 КГц
Битовая глубина : 24 бит
Метод сжатия : С потерями
Размер потока : 1,23 Гбайт (8%)
Заголовок : #2 Гаврилов, DTS 5.1 1510kbps
Язык : Russian
Default : Нет
Forced : Нет

Аудио #3
Идентификатор : 4
Формат : AC-3
Формат/Информация : Audio Coding 3
Расширение режима : CM (complete main)
Параметр Endianness формата : Big
Идентификатор кодека : A_AC3
Продолжительность : 1 ч. 56 м.
Вид битрейта : Постоянный
Битрейт : 448 Кбит/сек
Каналы : 6 каналов
Расположение каналов : Front: L C R, Side: L R, LFE
Частота : 48,0 КГц
Битовая глубина : 16 бит
Метод сжатия : С потерями
Размер потока : 374 Мбайт (2%)
Заголовок : #3 Карцев, АС3 5.1 448kbps
Язык : Russian
Default : Нет
Forced : Нет

Аудио #4
Идентификатор : 5
Формат : DTS
Формат/Информация : Digital Theater Systems
Идентификатор кодека : A_DTS
Продолжительность : 1 ч. 56 м.
Вид битрейта : Постоянный
Битрейт : 755 Кбит/сек
Каналы : 6 каналов
Расположение каналов : Front: L C R, Side: L R, LFE
Частота : 48,0 КГц
Битовая глубина : 24 бит
Метод сжатия : С потерями
Размер потока : 630 Мбайт (4%)
Заголовок : #4 Супербит/Киномания, DTS 5.1 756kbps
Язык : Russian
Default : Нет
Forced : Нет

Аудио #5
Идентификатор : 6
Формат : AC-3
Формат/Информация : Audio Coding 3
Расширение режима : CM (complete main)
Параметр Endianness формата : Big
Идентификатор кодека : A_AC3
Продолжительность : 1 ч. 56 м.
Вид битрейта : Постоянный
Битрейт : 448 Кбит/сек
Каналы : 6 каналов
Расположение каналов : Front: L C R, Side: L R, LFE
Частота : 48,0 КГц
Битовая глубина : 16 бит
Метод сжатия : С потерями
Размер потока : 374 Мбайт (2%)
Заголовок : #5 НТВ, АС3 5.1 448kbps
Язык : Russian
Default : Нет
Forced : Нет

Аудио #6
Идентификатор : 7
Формат : AC-3
Формат/Информация : Audio Coding 3
Расширение режима : CM (complete main)
Параметр Endianness формата : Big
Идентификатор кодека : A_AC3
Продолжительность : 1 ч. 56 м.
Вид битрейта : Постоянный
Битрейт : 192 Кбит/сек
Каналы : 2 канала
Расположение каналов : Front: L R
Частота : 48,0 КГц
Битовая глубина : 16 бит
Метод сжатия : С потерями
Размер потока : 160 Мбайт (1%)
Заголовок : #6 К. Поздняков, АС3 2.0 192kbps
Язык : Russian
Default : Нет
Forced : Нет

Аудио #7
Идентификатор : 8
Формат : AC-3
Формат/Информация : Audio Coding 3
Расширение режима : CM (complete main)
Параметр Endianness формата : Big
Идентификатор кодека : A_AC3
Продолжительность : 1 ч. 56 м.
Вид битрейта : Постоянный
Битрейт : 192 Кбит/сек
Каналы : 2 канала
Расположение каналов : Front: L R
Частота : 48,0 КГц
Битовая глубина : 16 бит
Метод сжатия : С потерями
Размер потока : 160 Мбайт (1%)
Заголовок : #7 СТС, АС3 2.0 192kbps
Язык : Russian
Default : Нет
Forced : Нет

Аудио #8
Идентификатор : 9
Формат : DTS
Формат/Информация : Digital Theater Systems
Идентификатор кодека : A_DTS
Продолжительность : 1 ч. 56 м.
Вид битрейта : Постоянный
Битрейт : 1510 Кбит/сек
Каналы : 6 каналов
Расположение каналов : Front: L C R, Side: L R, LFE
Частота : 48,0 КГц
Битовая глубина : 24 бит
Метод сжатия : С потерями
Размер потока : 1,23 Гбайт (8%)
Заголовок : DTS-HDMA core 5.1CH 1509kbps
Язык : English
Default : Да
Forced : Нет

Текст #1
Идентификатор : 10
Формат : UTF-8
Идентификатор кодека : S_TEXT/UTF8
Идентификатор кодека/Информация : UTF-8 Plain Text
Заголовок : Субтитры К. Позднякова
Язык : Russian
Default : Да
Forced : Нет

Текст #2
Идентификатор : 11
Формат : UTF-8
Идентификатор кодека : S_TEXT/UTF8
Идентификатор кодека/Информация : UTF-8 Plain Text
Заголовок : Субтитры с Blu-ray
Язык : Russian
Default : Нет
Forced : Нет

Текст #3
Идентификатор : 12
Формат : UTF-8
Идентификатор кодека : S_TEXT/UTF8
Идентификатор кодека/Информация : UTF-8 Plain Text
Язык : English
Default : Нет
Forced : Нет
Свернуть
"Знаете ли Вы, что..."
  • Режиссер Ирвин Кершнер заменил Тима Хантера, который выбыл из проекта во время подготовительного периода по причине творческих разногласий.
  • Постановка предлагалась норвежскому режиссеру Нильсу Гаупу, но тот от нее отказался.
  • Несмотря на то что сценарий Фрэнка Миллера очень нравился продюсерам, они вскоре поняли, что снять по нему фильм почти невозможно. Поэтому он был значительно переработан; его окончательная версия имеет мало общего с авторской концепцией Миллера. В 2003 году по сценарию Миллера был создан комикс под названием «Робот-полицейский Фрэнка Миллера».
Свернуть
Скриншоты

Изображение
Изображение
Изображение
Изображение
Изображение
Свернуть
Не в сети
Профиль  
 Добавлено: 2013-07-24 19:44 (спустя 5 месяцев 11 дней)
Аватара пользователя
Стаж: 8 лет 1 месяц
Возраст: 26
Сообщений: 132
Лайков: 1
:ry_car: :ry_car: :ry_car: НАРОД ВСТАНЬТЕ ПОЖАЛУЙСТО НА РАЗДАЧУ :ry_car: :ry_car: :ry_car:
Не в сети
Профиль  
Начать новую темуОтветить на тему  [ Сообщений: 2 ] 
Вы не можете начинать темы
Вы не можете отвечать на сообщения
Вы не можете редактировать свои сообщения
Вы не можете удалять свои сообщения