Правила форума

  • В этом разделе создание новых тем Запрещено.
  • Для создания новых тем пользуйтесь Корневым разделом DVD и HD фильмы.
Начать новую темуОтветить на тему  [ Сообщений: 2 ] 
Торрент файл
Размер: 12.69 GB • Зарегистрирован: 3 года 9 месяцев • Статус: Проверено
Скачан: 10 раз • Желающих скачать: 0 • Поблагодарили: 6 раз
 Раздают: 0  |  0 KB/s  ]   Качают: 0  |  0 KB/s  ] 
 Полного источника не было 1 год 7 месяцев 
Сообщения
 Добавлено: 2013-02-14 06:52
Top-releaser
Аватара пользователя
Стаж: 6 лет 7 месяцев
Сообщений: 2078
Спасибок: 3229
Лайков: 9
Изображение

Робокоп 3
RoboCop 3


Год выпуска: 1993
Страна: США
Слоган: «Back on line, Back on duty.»
Жанр: фантастика, боевик, триллер, драма, криминал
Продолжительность: 01:44:50
Перевод: Профессиональный (полное дублирование)
Режиссер: Фред Деккер
Сценарий: Фрэнк Миллер, Фред Деккер, Эдвард Ноймайер, Майкл Майнер
Продюсер: Патрик Краули, Джейн Бартелм, Эндрю Дж. Ла Марка
Оператор: Гэри Б. Кибби
Композитор: Бэзил Поледурис
В ролях: Роберт Джон Бёрк, Марио Мачадо, Реми Райан, Джоди Лонг, Джон Пози, Рип Торн, Мако, Джон Касл, С.Д. Немет, Эдит Айви, Кертис Тейлор, Си Си Эйч Паундер
Бюджет: $22 000 000
Сборы в США: $10 696 210
Мировая премьера: 1 мая 1993
Релиз на Blu-ray: 21 октября 2010, «Двадцатый Век Фокс СНГ»
Описание: Могущественная корпорация «OKP» и их «сумасшедший» управляющий Макдагет предпринимает меры помочь людям, но с другой стороны она всего лишь хочет приобрести капитал города для себя. Робот - полицейский оказывает сопротивление управляющему этой организацией Макдагетту, за это управляющий убивает Льюис напарницу Робота - полицейского и приказывает убить и того. Робокоп объединяется с повстанцами и полицией для войны с Макдагетом и его «лживой» организацией, и для этого он снаряжается реактивным ранцем...
Раздача группы:
Изображение

Изображение User Rating: 5.899 (5543)
Изображение User Rating: 3.70 (20 563)
MPAA: PG-13 - Детям до 13 лет просмотр не желателен
Качество: BDRip, 1080p
Формат: MKV
Видео: AVC; 1920x1038 (1.850); 11811 Kbps; 23,976 fps; 0,247 bit/pixel
Аудио №1: русский; DTS; 755 Kbps; CBR; 6 ch; 24 bit |Дубляж, Blu-Ray CEE |
Аудио №2: русский; DTS; 1510 Kbps; CBR; 6 ch; 24 bit |Одноголосый закадровый, Ю. Живов|
Аудио №3: русский; DTS; 755 Kbps; CBR; 6 ch; 24 bit |Многоголосый закадровый, Супербит/Киномания|
Аудио №4: русский; AC3; 448 Kbps; CBR; 6 ch |Двухголосый закадровый, НТВ |
Аудио №5: русский; AC3; 192 Kbps; CBR; 2 ch |Многоголосый закадровый, СТС|
Аудио №6: английский; DTS; 1510 Kbps; CBR; 6 ch; 24 bit

Субтитры: русские, английские
mediainfo
Общее
Уникальный идентификатор : 220360406534599109067794075380970121914 (0xA5C7DEDC614BE4BAA3D6F5FFCFE76ABA)
Полное имя : Z:\WWW\TR-Downloads\Robocop.3.1993.BluRay.1080p.DTS..5.Rus.Eng.x264-CHD.mkv
Формат : Matroska
Версия формата : Version 2
Размер файла : 12,7 Гбайт
Продолжительность : 1 ч. 44 м.
Общий поток : 17,3 Мбит/сек
Название фильма : ТыНьО специально для -=RUTRACKER.RU=-
Дата кодирования : UTC 2010-09-27 07:19:50
Программа кодирования : mkvmerge v4.3.0 ('Escape from the Island') сборка от Sep 5 2010 10:30:51
Библиотека кодирования : libebml v1.0.0 + libmatroska v1.0.0

Видео
Идентификатор : 1
Формат : AVC
Формат/Информация : Advanced Video Codec
Профиль формата : High@L4.1
Параметр CABAC формата : Да
Параметр ReFrames формата : 4 кадра
Идентификатор кодека : V_MPEG4/ISO/AVC
Продолжительность : 1 ч. 44 м.
Битрейт : 12,1 Мбит/сек
Ширина : 1920 пикселей
Высота : 1038 пикселей
Соотношение сторон : 1,85:1
Частота кадров : 23,976 кадра/сек
Цветовое пространство : YUV
Субдискретизация насыщенности : 4:2:0
Битовая глубина : 8 бит
Тип развёртки : Прогрессивная
Бит/(Пиксели*Кадры) : 0.254
Размер потока : 8,65 Гбайт (68%)
Заголовок : Robocop.3.1993
Библиотека кодирования : x264 core 102 r1666 d058f37
Настройки программы : cabac=1 / ref=4 / deblock=1:-3:-3 / analyse=0x3:0x113 / me=umh / subme=9 / psy=1 / psy_rd=1.10:0.15 / mixed_ref=1 / me_range=32 / chroma_me=1 / trellis=2 / 8x8dct=1 / cqm=2 / deadzone=21,11 / fast_pskip=0 / chroma_qp_offset=-2 / threads=12 / sliced_threads=0 / nr=0 / decimate=1 / interlaced=0 / constrained_intra=0 / bframes=5 / b_pyramid=2 / b_adapt=2 / b_bias=0 / direct=3 / weightb=1 / open_gop=0 / weightp=2 / keyint=250 / keyint_min=25 / scenecut=40 / intra_refresh=0 / rc_lookahead=50 / rc=2pass / mbtree=1 / bitrate=12145 / ratetol=2.0 / qcomp=0.70 / qpmin=10 / qpmax=51 / qpstep=4 / cplxblur=20.0 / qblur=0.5 / vbv_maxrate=50000 / vbv_bufsize=50000 / ip_ratio=1.40 / aq=1:0.90 / nal_hrd=none
Язык : English
Default : Да
Forced : Да

Аудио #1
Идентификатор : 2
Формат : DTS
Формат/Информация : Digital Theater Systems
Идентификатор кодека : A_DTS
Продолжительность : 1 ч. 44 м.
Вид битрейта : Постоянный
Битрейт : 755 Кбит/сек
Каналы : 6 каналов
Расположение каналов : Front: L C R, Side: L R, LFE
Частота : 48,0 КГц
Битовая глубина : 24 бит
Метод сжатия : С потерями
Размер потока : 566 Мбайт (4%)
Заголовок : #1 Дубляж с Blu-ray, DTS 5.1 756kbps
Язык : Russian
Default : Нет
Forced : Нет

Аудио #2
Идентификатор : 3
Формат : DTS
Формат/Информация : Digital Theater Systems
Идентификатор кодека : A_DTS
Продолжительность : 1 ч. 44 м.
Вид битрейта : Постоянный
Битрейт : 1510 Кбит/сек
Каналы : 6 каналов
Расположение каналов : Front: L C R, Side: L R, LFE
Частота : 48,0 КГц
Битовая глубина : 24 бит
Метод сжатия : С потерями
Размер потока : 1,11 Гбайт (9%)
Заголовок : #2 Живов, DTS 5.1 1510kbps
Язык : Russian
Default : Нет
Forced : Нет

Аудио #3
Идентификатор : 4
Формат : DTS
Формат/Информация : Digital Theater Systems
Идентификатор кодека : A_DTS
Продолжительность : 1 ч. 44 м.
Вид битрейта : Постоянный
Битрейт : 755 Кбит/сек
Каналы : 6 каналов
Расположение каналов : Front: L C R, Side: L R, LFE
Частота : 48,0 КГц
Битовая глубина : 24 бит
Метод сжатия : С потерями
Размер потока : 566 Мбайт (4%)
Заголовок : #3 Супербит/Киномания, DTS 5.1 756kbps
Язык : Russian
Default : Нет
Forced : Нет

Аудио #4
Идентификатор : 5
Формат : AC-3
Формат/Информация : Audio Coding 3
Расширение режима : CM (complete main)
Параметр Endianness формата : Big
Идентификатор кодека : A_AC3
Продолжительность : 1 ч. 44 м.
Вид битрейта : Постоянный
Битрейт : 448 Кбит/сек
Каналы : 6 каналов
Расположение каналов : Front: L C R, Side: L R, LFE
Частота : 48,0 КГц
Битовая глубина : 16 бит
Метод сжатия : С потерями
Размер потока : 336 Мбайт (3%)
Заголовок : #4 НТВ, АС3 5.1 448kbps
Язык : Russian
Default : Нет
Forced : Нет

Аудио #5
Идентификатор : 6
Формат : AC-3
Формат/Информация : Audio Coding 3
Расширение режима : CM (complete main)
Параметр Endianness формата : Big
Идентификатор кодека : A_AC3
Продолжительность : 1 ч. 44 м.
Вид битрейта : Постоянный
Битрейт : 192 Кбит/сек
Каналы : 2 канала
Расположение каналов : Front: L R
Частота : 48,0 КГц
Битовая глубина : 16 бит
Метод сжатия : С потерями
Размер потока : 144 Мбайт (1%)
Заголовок : #5 СТС, АС3 2.0 192kbps
Язык : Russian
Default : Нет
Forced : Нет

Аудио #6
Идентификатор : 7
Формат : DTS
Формат/Информация : Digital Theater Systems
Идентификатор кодека : A_DTS
Продолжительность : 1 ч. 44 м.
Вид битрейта : Постоянный
Битрейт : 1510 Кбит/сек
Каналы : 6 каналов
Расположение каналов : Front: L C R, Side: L R, LFE
Частота : 48,0 КГц
Битовая глубина : 24 бит
Метод сжатия : С потерями
Размер потока : 1,11 Гбайт (9%)
Заголовок : DTS-HD MA CORE 1536K
Язык : English
Default : Да
Forced : Нет

Текст #1
Идентификатор : 8
Формат : UTF-8
Идентификатор кодека : S_TEXT/UTF8
Идентификатор кодека/Информация : UTF-8 Plain Text
Заголовок : Перевод BOBAHC
Язык : Russian
Default : Да
Forced : Нет

Текст #2
Идентификатор : 9
Формат : UTF-8
Идентификатор кодека : S_TEXT/UTF8
Идентификатор кодека/Информация : UTF-8 Plain Text
Заголовок : Субтитры с Blu-ray
Язык : Russian
Default : Нет
Forced : Нет

Текст #3
Идентификатор : 10
Формат : UTF-8
Идентификатор кодека : S_TEXT/UTF8
Идентификатор кодека/Информация : UTF-8 Plain Text
Язык : English
Default : Нет
Forced : Нет
Свернуть
"Знаете ли Вы, что..."
  • Питер Уэллер отказался вновь играть Робота-полицейского из-за съемок в картине Дэвида Кроненберга «Обед нагишом» (1991).
  • Фильм был снят в 1991 году, но выпустили его только 5 ноября 1993 года. Причина такой задержки заключается в банкротстве кинокомпании «Orion», занимавшейся дистрибьюцией картины.
  • Съемки проходили в Атланте, где в то время уже начинали готовиться к Олимпийским играм 1996 года. Большинство пустовавших зданий, показанных в фильме, - это дома, подлежащие сносу.
Свернуть
Скриншоты

Изображение
Изображение
Изображение
Изображение
Изображение
Свернуть
Не в сети
Профиль  
 Добавлено: 2013-07-24 19:45 (спустя 5 месяцев 10 дней)
Аватара пользователя
Стаж: 8 лет 1 месяц
Возраст: 26
Сообщений: 132
Лайков: 1
:ry_car: :ry_car: :ry_car: НАРОД ВСТАНЬТЕ ПОЖАЛУЙСТО НА РАЗДАЧУ :ry_car: :ry_car: :ry_car:
Не в сети
Профиль  
Начать новую темуОтветить на тему  [ Сообщений: 2 ] 
Вы не можете начинать темы
Вы не можете отвечать на сообщения
Вы не можете редактировать свои сообщения
Вы не можете удалять свои сообщения