Правила форума

  • В этом разделе создание новых тем Запрещено.
  • Для создания новых тем пользуйтесь Корневым разделом DVD и HD фильмы.
Начать новую темуОтветить на тему  [ 1 сообщение ] 
Торрент файл
Размер: 6.98 GB • Зарегистрирован: 1 год 6 месяцев • Статус: Проверено
Скачан: 47 раз • Желающих скачать: 0 • Поблагодарили: 8 раз
 Раздают: 0  |  0 KB/s  ]   Качают: 0  |  0 KB/s  ] 
 Полного источника не было 1 месяц 4 дня 
Сообщения
 Добавлено: 2015-06-06 10:38
RG-ELEKTRO
Аватара пользователя
Стаж: 2 года 3 месяца
Сообщений: 7928
Спасибок: 53781
Лайков: 3304
Робот по имени Чаппи / Chappie


Изображение


Год выпуска: 2015
Страна: Мексика, США, ЮАР (Columbia Pictures)
Жанр: Фантастика, боевик, триллер
Продолжительность: 02:00:19
Перевод: Профессиональный (дубляж) [Лицензия] + Профессиональный (дубляж) + Оригинальная звуковая дорожка
Субтитры: Русские, английские, украинские

Режиссёр: Нил Бломкамп
В ролях: Шарлто Копли, Дев Патель, Ниндзя, Йоланди Фиссер, Хосе Пабло Кантилльо, Хью Джекман, Сигурни Уивер, Брэндон Оре, Джонни Селема, Андерсон Купер, Морис Карпеде, Джейсон Коуп, Кевин Отто, Крис Шилдс, Билл Мэрчент, Роберт Хоббс, Марк К. Куслу, Шерлдон Марема, Шахид Хаджи, Дэвид Давадосс
Описание: Чаппи — вундеркинд. Как и любой другой ребенок, он попадает под влияние своего окружения, и только его сердце и душа помогут ему найти свой путь. Но есть одна вещь, которая делает Чаппи непохожим на всех остальных: он — первый робот, способный чувствовать и думать.
Изображение Изображение
Качество: BDRip 720p
Формат: MKV
Видео кодек: MPEG-4 AVC
Аудио кодек: AC3 / DTS
Видео: MPEG-4 AVC, 4000 Кбит/с, 1280x534
Аудио #1: AC3, 6 ch, 640 Кбит/с [Профессиональный (дубляж)]
Аудио #2: DTS, 6 ch, 1510 Кбит/с [Профессиональный (дубляж)]
Аудио #3: Украинский (AC3, 6 ch, 640 Кбит/с),
Аудио #4: Фнглийский (DTS, 6 ch, 1510 Кбит/с) [Оригинальная звуковая дорожка]
Субтитры: Русские, английские, украинские
"MI"
Общее
Уникальный идентификатор : 176507158331732186722088227620333928126 (0x84CA0ACB316478FC86843F994DA9BEBE)
Полное имя : C:Chappie.2015.720p.by.bog3417.mkv
Формат : Matroska
Версия формата : Version 2
Размер файла : 6,98 Гбайт
Продолжительность : 2 ч. 0 м.
Общий поток : 8302 Кбит/сек
Название фильма : Chappie.2015.720p.by.bog3417
Дата кодирования : UTC 2015-06-06 06:43:00
Программа кодирования : mkvmerge v7.9.0 ('Birds') 64bit
Библиотека кодирования : libebml v1.3.1 + libmatroska v1.4.2

Видео
Идентификатор : 1
Формат : AVC
Формат/Информация : Advanced Video Codec
Профиль формата : High@L4.1
Параметр CABAC формата : Да
Параметр ReFrames формата : 9 кадров
Идентификатор кодека : V_MPEG4/ISO/AVC
Продолжительность : 2 ч. 0 м.
Битрейт : 4000 Кбит/сек
Ширина : 1280 пикселей
Высота : 534 пикселя
Соотношение сторон : 2,40:1
Режим частоты кадров : Постоянный
Частота кадров : 23,976 кадра/сек
Цветовое пространство : YUV
Субдискретизация насыщенности : 4:2:0
Битовая глубина : 8 бит
Тип развёртки : Прогрессивная
Бит/(Пиксели*Кадры) : 0.244
Размер потока : 3,23 Гбайт (46%)
Заголовок : Chappie.2015.720p.by.bog3417
Библиотека кодирования : x264 core 146 r2538 121396c
Настройки программы : cabac=1 / ref=9 / deblock=1:-3:-3 / analyse=0x3:0x33 / me=umh / subme=11 / psy=1 / psy_rd=1.02:0.10 / mixed_ref=1 / me_range=48 / chroma_me=1 / trellis=2 / 8x8dct=1 / cqm=0 / deadzone=21,11 / fast_pskip=0 / chroma_qp_offset=-3 / threads=12 / lookahead_threads=3 / sliced_threads=0 / nr=0 / decimate=0 / interlaced=0 / bluray_compat=0 / constrained_intra=0 / bframes=10 / b_pyramid=2 / b_adapt=2 / b_bias=0 / direct=3 / weightb=1 / open_gop=1 / weightp=2 / keyint=240 / keyint_min=23 / scenecut=40 / intra_refresh=0 / rc_lookahead=60 / rc=2pass / mbtree=1 / bitrate=4000 / ratetol=1.0 / qcomp=0.60 / qpmin=0 / qpmax=69 / qpstep=4 / cplxblur=20.0 / qblur=0.5 / ip_ratio=1.40 / aq=3:0.90
Язык : English
Default : Да
Forced : Нет

Аудио #1
Идентификатор : 2
Формат : AC-3
Формат/Информация : Audio Coding 3
Расширение режима : CM (complete main)
Параметр Endianness формата : Big
Идентификатор кодека : A_AC3
Продолжительность : 2 ч. 0 м.
Вид битрейта : Постоянный
Битрейт : 640 Кбит/сек
Каналы : 6 каналов
Расположение каналов : Front: L C R, Side: L R, LFE
Частота : 48,0 КГц
Метод сжатия : С потерями
Размер потока : 551 Мбайт (8%)
Заголовок : AC3 5.1 @ 640 kbps - DUB, Blu-ray CEE
Язык : Russian
Default : Да
Forced : Нет

Аудио #2
Идентификатор : 3
Формат : DTS
Формат/Информация : Digital Theater Systems
Режим : 16
Параметр Endianness формата : Big
Идентификатор кодека : A_DTS
Продолжительность : 2 ч. 0 м.
Вид битрейта : Постоянный
Битрейт : 1509 Кбит/сек
Каналы : 6 каналов
Расположение каналов : Front: L C R, Side: L R, LFE
Частота : 48,0 КГц
Битовая глубина : 16 бит
Метод сжатия : С потерями
Размер потока : 1,27 Гбайт (18%)
Язык : Russian
Default : Нет
Forced : Нет

Аудио #3
Идентификатор : 4
Формат : AC-3
Формат/Информация : Audio Coding 3
Расширение режима : CM (complete main)
Параметр Endianness формата : Big
Идентификатор кодека : A_AC3
Продолжительность : 2 ч. 0 м.
Вид битрейта : Постоянный
Битрейт : 640 Кбит/сек
Каналы : 6 каналов
Расположение каналов : Front: L C R, Side: L R, LFE
Частота : 48,0 КГц
Метод сжатия : С потерями
Размер потока : 551 Мбайт (8%)
Заголовок : AC3 5.1 @ 640 kbps - DUB, Blu-ray CEE
Язык : Ukrainian
Default : Нет
Forced : Нет

Аудио #4
Идентификатор : 5
Формат : DTS
Формат/Информация : Digital Theater Systems
Режим : 16
Параметр Endianness формата : Big
Идентификатор кодека : A_DTS
Продолжительность : 2 ч. 0 м.
Вид битрейта : Постоянный
Битрейт : 1509 Кбит/сек
Каналы : 6 каналов
Расположение каналов : Front: L C R, Side: L R, LFE
Частота : 48,0 КГц
Битовая глубина : 24 бит
Метод сжатия : С потерями
Задержка видео : 11 мс.
Размер потока : 1,27 Гбайт (18%)
Заголовок : DTS 5.1 @ 1536 kbps
Язык : English
Default : Нет
Forced : Нет

Текст #1
Идентификатор : 6
Формат : UTF-8
Идентификатор кодека : S_TEXT/UTF8
Идентификатор кодека/Информация : UTF-8 Plain Text
Заголовок : Forced, iTunes
Язык : Russian
Default : Да
Forced : Нет

Текст #2
Идентификатор : 7
Формат : UTF-8
Идентификатор кодека : S_TEXT/UTF8
Идентификатор кодека/Информация : UTF-8 Plain Text
Заголовок : iTunes
Язык : Russian
Default : Нет
Forced : Нет

Текст #3
Идентификатор : 8
Формат : UTF-8
Идентификатор кодека : S_TEXT/UTF8
Идентификатор кодека/Информация : UTF-8 Plain Text
Заголовок : iTunes
Язык : Ukrainian
Default : Нет
Forced : Нет

Текст #4
Идентификатор : 9
Формат : UTF-8
Идентификатор кодека : S_TEXT/UTF8
Идентификатор кодека/Информация : UTF-8 Plain Text
Заголовок : iTunes
Язык : English
Default : Нет
Forced : Нет

Меню
00:00:00.000 : en:00:00:00.000
00:03:37.008 : en:00:03:37.008
00:09:55.261 : en:00:09:55.261
00:13:50.496 : en:00:13:50.496
00:21:53.646 : en:00:21:53.646
00:31:17.125 : en:00:31:17.125
00:37:19.320 : en:00:37:19.320
00:46:58.733 : en:00:46:58.733
00:54:36.690 : en:00:54:36.690
01:06:12.927 : en:01:06:12.927
01:09:57.652 : en:01:09:57.652
01:16:48.395 : en:01:16:48.395
01:24:59.553 : en:01:24:59.553
01:31:35.198 : en:01:31:35.198
01:42:36.942 : en:01:42:36.942
01:50:03.597 : en:01:50:03.597
Свернуть

Скриншоты
Изображение
Изображение
Изображение
Свернуть


Изображение


Изображение Изображение
_________________
Не ищите меня в "ВКонтакте", в "Одноклассниках" меня нет - я на трекерах сижу!
Не в сети
Профиль  
Начать новую темуОтветить на тему  [ 1 сообщение ] 
Вы не можете начинать темы
Вы не можете отвечать на сообщения
Вы не можете редактировать свои сообщения
Вы не можете удалять свои сообщения