Правила форума

  • В этом разделе создание новых тем Запрещено.
  • Для создания новых тем пользуйтесь Корневым разделом DVD и HD фильмы.
Начать новую темуОтветить на тему  [ 1 сообщение ] 
Торрент файл
Размер: 5.78 GB • Зарегистрирован: 1 год 6 месяцев • Статус: Проверено
Скачан: 62 раза • Желающих скачать: 0 • Поблагодарили: 19 раз
 Раздают: 0  |  0 KB/s  ]   Качают: 0  |  0 KB/s  ] 
 Полного источника не было 1 час 9 минут 
Сообщения
 Добавлено: 2015-05-29 04:21
DVD Release Group
Аватара пользователя
Стаж: 7 лет 1 месяц
Сообщений: 3544
Спасибок: 246939
Лайков: 1018
Робот по имени Чаппи

Chappie


Изображение


Год выпуска: 2015
Страна: Мексика, США
Жанр: Фантастика, боевик, триллер
Продолжительность: 02:00:20
Перевод: Профессиональный (полное дублирование)
Субтитры : Английские
Режиссер: Нил Бломкамп
В ролях: Шарлто Копли, Дев Патель, Ниндзя, Йоланди Фиссер, Хосе Пабло Кантильо, Хью Джекман, Сигурни Уивер, Брэндон Оре, Джонни Селема, Андерсон Купер
Описание: Чаппи — вундеркинд. Как и любой другой ребенок, он попадает под влияние своего окружения, и только его сердце и душа помогут ему найти свой путь. Но есть одна вещь, которая делает Чаппи непохожим на всех остальных: он — первый робот, способный чувствовать и думать.
ИзображениеИзображение
Sample:
http://sendfile.su/1122654
Качество: BDRip 720p
Формат: MKV
Видео кодек: H.264
Аудио кодек: AC3, DTS
Видео: 1280x536 23.98fps 4988kbps
Аудио:
Аудио Rus: AC3 48kHz 6ch 384kbps
Аудио Eng: DTS 48kHz 6ch 1510kbps
"MediaInfo"
Формат : Matroska
Версия формата : Version 4 / Version 2
Размер файла : 5,78 Гбайт
Продолжительность : 2 ч. 0 м.
Общий поток : 6880 Кбит/сек
Дата кодирования : UTC 2015-05-28 20:21:57
Программа кодирования : mkvmerge v7.6.0 ('Garden of Dreams') 32bit built on Feb 8 2015 12:51:39
Библиотека кодирования : libebml v1.3.1 + libmatroska v1.4.2
DURATION : 02:00:19.840000000
NUMBER_OF_FRAMES : 225620
NUMBER_OF_BYTES : 346552320
_STATISTICS_WRITING_APP : mkvmerge v7.6.0 ('Garden of Dreams') 32bit built on Feb 8 2015 12:51:39
_STATISTICS_WRITING_DATE_UTC : 2015-05-28 20:21:57
_STATISTICS_TAGS : BPS DURATION NUMBER_OF_FRAMES NUMBER_OF_BYTES

Видео
Идентификатор : 1
Формат : AVC
Формат/Информация : Advanced Video Codec
Профиль формата : High@L4.1
Параметр CABAC формата : Да
Параметр ReFrames формата : 5 кадров
Идентификатор кодека : V_MPEG4/ISO/AVC
Продолжительность : 2 ч. 0 м.
Битрейт : 4988 Кбит/сек
Ширина : 1280 пикселей
Высота : 536 пикселей
Соотношение сторон : 2,40:1
Режим частоты кадров : Постоянный
Частота кадров : 23,976 кадра/сек
Цветовое пространство : YUV
Субдискретизация насыщенности : 4:2:0
Битовая глубина : 8 бит
Тип развёртки : Прогрессивная
Бит/(Пиксели*Кадры) : 0.303
Размер потока : 4,08 Гбайт (70%)
Библиотека кодирования : x264 core 144 r2525 40bb568
Настройки программы : cabac=1 / ref=5 / deblock=1:0:0 / analyse=0x3:0x133 / me=umh / subme=7 / psy=1 / psy_rd=1.00:0.00 / mixed_ref=1 / me_range=16 / chroma_me=1 / trellis=1 / 8x8dct=1 / cqm=0 / deadzone=21,11 / fast_pskip=0 / chroma_qp_offset=-2 / threads=18 / lookahead_threads=3 / sliced_threads=0 / nr=0 / decimate=1 / interlaced=0 / bluray_compat=0 / constrained_intra=0 / bframes=3 / b_pyramid=2 / b_adapt=1 / b_bias=0 / direct=1 / weightb=1 / open_gop=0 / weightp=2 / keyint=250 / keyint_min=23 / scenecut=40 / intra_refresh=0 / rc_lookahead=40 / rc=2pass / mbtree=1 / bitrate=4988 / ratetol=1.0 / qcomp=0.60 / qpmin=0 / qpmax=69 / qpstep=4 / cplxblur=20.0 / qblur=0.5 / ip_ratio=1.40 / aq=1:1.00
Язык : English
Default : Да
Forced : Нет
DURATION : 02:00:19.140000000
NUMBER_OF_FRAMES : 173086
NUMBER_OF_BYTES : 4498872710
_STATISTICS_WRITING_APP : mkvmerge v7.6.0 ('Garden of Dreams') 32bit built on Feb 8 2015 12:51:39
_STATISTICS_WRITING_DATE_UTC : 2015-05-28 20:21:57
_STATISTICS_TAGS : BPS DURATION NUMBER_OF_FRAMES NUMBER_OF_BYTES

Аудио #1
Идентификатор : 2
Формат : AC-3
Формат/Информация : Audio Coding 3
Расширение режима : CM (complete main)
Параметр Endianness формата : Big
Идентификатор кодека : A_AC3
Продолжительность : 2 ч. 0 м.
Вид битрейта : Постоянный
Битрейт : 384 Кбит/сек
Каналы : 6 каналов
Расположение каналов : Front: L C R, Side: L R, LFE
Частота : 48,0 КГц
Битовая глубина : 16 бит
Метод сжатия : С потерями
Задержка видео : 24 мс.
Размер потока : 330 Мбайт (6%)
Язык : Russian
Default : Да
Forced : Нет

Аудио #2
Идентификатор : 3
Формат : DTS
Формат/Информация : Digital Theater Systems
Режим : 16
Параметр Endianness формата : Big
Идентификатор кодека : A_DTS
Продолжительность : 2 ч. 0 м.
Вид битрейта : Постоянный
Битрейт : 1509 Кбит/сек
Каналы : 6 каналов
Расположение каналов : Front: L C R, Side: L R, LFE
Частота : 48,0 КГц
Битовая глубина : 24 бит
Метод сжатия : С потерями
Размер потока : 1,27 Гбайт (22%)
Язык : English
Default : Нет
Forced : Нет

Текст
Идентификатор : 4
Формат : UTF-8
Идентификатор кодека : S_TEXT/UTF8
Идентификатор кодека/Информация : UTF-8 Plain Text
Заголовок : English-Forced
Язык : English
Default : Нет
Forced : Нет

Меню
00:00:00.000 : en:00:00:00.000
00:03:37.008 : en:00:03:37.008
00:09:55.261 : en:00:09:55.261
00:13:50.496 : en:00:13:50.496
00:21:53.646 : en:00:21:53.646
00:31:17.125 : en:00:31:17.125
00:37:19.320 : en:00:37:19.320
00:46:58.733 : en:00:46:58.733
00:54:36.690 : en:00:54:36.690
01:06:12.927 : en:01:06:12.927
01:09:57.652 : en:01:09:57.652
01:16:48.395 : en:01:16:48.395
01:24:59.553 : en:01:24:59.553
01:31:35.198 : en:01:31:35.198
01:42:36.942 : en:01:42:36.942
01:50:03.597 : en:01:50:03.597
Свернуть

"Скриншоты"
Изображение
Изображение
Изображение
Свернуть
Не в сети
Профиль  
Начать новую темуОтветить на тему  [ 1 сообщение ] 
Вы не можете начинать темы
Вы не можете отвечать на сообщения
Вы не можете редактировать свои сообщения
Вы не можете удалять свои сообщения