Правила форума

  • В этом разделе создание новых тем Запрещено.
  • Для создания новых тем пользуйтесь Корневым разделом DVD и HD фильмы.
Начать новую темуОтветить на тему  [ 1 сообщение ] 
Торрент файл
Размер: 5.15 GB • Зарегистрирован: 3 года 7 месяцев • Статус: T Временный релиз
Скачан: 52 раза • Желающих скачать: 0 • Поблагодарили: 14 раз
 Раздают: 0  |  0 KB/s  ]   Качают: 0  |  0 KB/s  ] 
 Полного источника не было 2 года 
Сообщения
 Добавлено: 2013-04-13 19:50
Аватара пользователя
Стаж: 7 лет 4 месяца
Возраст: 28
Сообщений: 340
Спасибок: 4350
Лайков: 2


Родительский беспредел / Parental Guidance

«Наши внуки - наши правила»


Изображение


Год выпуска: 2012
Производство: США | Chernin Entertainment, Walden Media
Жанр: Комедия, Семейный
Продолжительность: 01:44:38
Перевод: Дублированный [Чистый звук]


Режиссер: Энди Фикмен / Andy Fickman


Продюсер: Питер Чернин / Peter Chernin, Билли Кристал / Billy Crystal, Саманта Шпрехер / Samantha Sprecher


В ролях: Билли Кристал / Billy Crystal (Artie Decker), Бетт Мидлер / Bette Midler (Diane Decker), Мариса Томей / Marisa Tomei (Alice Simmons), Том Эверетт Скотт / Tom Everett Scott (Phil Simmons), Бэйли Мэдисон / Bailee Madison (Harper Simmons), Джошуа Раш / Joshua Rush (Turner Simmons), Кайл Харрисон Брейткопф / Kyle Harrison Breitkopf (Barker Simmons), Рода Гриффис / Rhoda Griffis ( Dr. Schveer)


Описание фильма:
Когда Элис оставляет своих отпрысков на попечение родителей, те рады и счастливы: наконец-то они смогут посвятить внукам больше времени. Но совсем скоро Арти и Диана понимают, что постоянные школьные занятия и жизнь по строгому расписанию — это совсем не то, что нужно детям. Чтобы вернуть своим кровинушкам детство, «старая гвардия» вынуждена прибегнуть к нестандартным методам воспитания и использовать неожиданную тактику…


Изображение Изображение

Дата мировой премьеры: 25 декабря 2012
Дата российской премьеры: 17 января 2013, «Двадцатый Век Фокс СНГ»
Дата выхода DVD релиза: 25 апреля 2013, «Двадцатый Век Фокс СНГ»
Дата выхода Blu-Ray релиза: 25 апреля 2013, «Двадцатый Век Фокс СНГ»


Качество: BDRip 720p
Формат: MKV
Видео кодек: MPEG-4 AVC / H.264
Аудио кодек: MP3, DTS
Видео: 1280x690 (1.85:1), 23.979fps, MPEG-4 AVC~5342 Kbps, 0.252bit/pixel
Аудио #1: 48.00kHz, MP3, 2ch, 192kbps Russian
Аудио #2: 48.00kHz, DTS, 6ch, 1509kbps English


MediaInfo:
Complete name : D:\Фильмы\Parental.Guidance.2012.D.BDRip.720p.mkv
Format : Matroska
Format version : Version 4 / Version 2
File size : 5.15 GiB
Duration : 1h 44mn
Overall bit rate : 7 040 Kbps
Encoded date : UTC 2013-04-12 21:01:12
Writing application : mkvmerge v6.1.0 ('Old Devil') built on Mar 2 2013 14:32:37
Writing library : libebml v1.3.0 + libmatroska v1.4.0

Video #1
ID : 1
Format : AVC
Format/Info : Advanced Video Codec
Format profile : High@L4.1
Format settings, CABAC : Yes
Format settings, ReFrames : 9 frames
Codec ID : V_MPEG4/ISO/AVC
Duration : 1h 44mn
Bit rate : 5 342 Kbps
Width : 1 280 pixels
Height : 690 pixels
Display aspect ratio : 1.85:1
Frame rate mode : Constant
Frame rate : 23.976 fps
Color space : YUV
Chroma subsampling : 4:2:0
Bit depth : 8 bits
Scan type : Progressive
Bits/(Pixel*Frame) : 0.252
Stream size : 3.80 GiB (74%)
Title : Parental.Guidance.2012.BluRay.720p.DTS.x264-CHD
Writing library : x264 core 125 r2208 d9d2288
Encoding settings : cabac=1 / ref=9 / deblock=1:-3:-3 / analyse=0x3:0x113 / me=umh / subme=10 / psy=1 / psy_rd=1.00:0.05 / mixed_ref=1 / me_range=32 / chroma_me=1 / trellis=2 / 8x8dct=1 / cqm=0 / deadzone=21,11 / fast_pskip=0 / chroma_qp_offset=-2 / threads=8 / lookahead_threads=1 / sliced_threads=0 / nr=0 / decimate=1 / interlaced=0 / bluray_compat=0 / constrained_intra=0 / bframes=5 / b_pyramid=2 / b_adapt=2 / b_bias=0 / direct=3 / weightb=1 / open_gop=0 / weightp=2 / keyint=250 / keyint_min=23 / scenecut=40 / intra_refresh=0 / rc=2pass / mbtree=0 / bitrate=5342 / ratetol=1.0 / qcomp=0.70 / qpmin=0 / qpmax=69 / qpstep=4 / cplxblur=20.0 / qblur=0.5 / ip_ratio=1.40 / pb_ratio=1.30 / aq=2:0.90
Language : English
Default : Yes
Forced : Yes

Audio #2
ID : 2
Format : MPEG Audio
Format version : Version 1
Format profile : Layer 3
Mode : Joint stereo
Codec ID : A_MPEG/L3
Codec ID/Hint : MP3
Duration : 1h 44mn
Bit rate mode : Constant
Bit rate : 192 Kbps
Channel(s) : 2 channels
Sampling rate : 48.0 KHz
Compression mode : Lossy
Stream size : 144 MiB (3%)
Title : DD 2.0 @ 192 kbps - Dub
Language : Russian
Default : Yes
Forced : Yes

Audio #3
ID : 3
Format : DTS
Format/Info : Digital Theater Systems
Mode : 16
Format settings, Endianness : Big
Codec ID : A_DTS
Duration : 1h 44mn
Bit rate mode : Constant
Bit rate : 1 509 Kbps
Channel(s) : 6 channels
Channel positions : Front: L C R, Side: L R, LFE
Sampling rate : 48.0 KHz
Bit depth : 24 bits
Compression mode : Lossy
Stream size : 1.10 GiB (21%)
Title : English DTS 5.1 1509Kbps
Language : English
Default : No
Forced : No
Свернуть



Cкриншоты
Изображение

Изображение

Изображение

Изображение
Свернуть



Приятного просмотра!

Не забываем говорить спасибо, т.к. вам не сложно, а мне приятно! :)


_________________
Вообще стало не совпадать: как хочется поступить и как правильно поступить. А хочется, чтобы было как правильно, но хочется, чтобы было, как хочется… И, что делать?!
Не в сети
Профиль  
Начать новую темуОтветить на тему  [ 1 сообщение ] 
Вы не можете начинать темы
Вы не можете отвечать на сообщения
Вы не можете редактировать свои сообщения
Вы не можете удалять свои сообщения