Правила форума

  • В этом разделе создание новых тем Запрещено.
  • Для создания новых тем пользуйтесь Корневым разделом DVD и HD фильмы.
Начать новую темуОтветить на тему  [ 1 сообщение ] 
Торрент файл
Размер: 17.24 GB • Зарегистрирован: 3 года 7 месяцев • Статус: Проверено
Скачан: 90 раз • Желающих скачать: 0 • Поблагодарили: 21 раз
 Раздают: 0  |  0 KB/s  ]   Качают: 0  |  0 KB/s  ] 
 Полного источника не было 2 года 7 месяцев 
Сообщения
 Добавлено: 2013-04-16 20:50
Аватара пользователя
Стаж: 9 лет
Сообщений: 7899
Спасибок: 122084
Лайков: 1190
Родительский беспредел / Parental Guidance

«Наши внуки - наши правила»

Изображение


Год выпуска: 2012
Страна: Изображение США
Жанр: комедия, семейный
Продолжительность: 01:44:38
Перевод: Профессиональный (полное дублирование) [Лицензия]


Режиссёр: Энди Фикмен
Сценарист: Лиза Аддарио, Джо Сиракьюз
Продюсер: Питер Чернин, Билли Кристал, Саманта Шпрехер
Оператор: Дин Семлер
Композитор: Марк Шэймен

В ролях: Билли Кристал, Бетт Мидлер, Мариса Томей, Том Эверетт Скотт, Бэйли Мэдисон, Джошуа Раш, Рода Гриффис

Описание: Когда Элис оставляет своих отпрысков на попечение родителей, те рады и счастливы: наконец-то они смогут посвятить внукам больше времени. Но совсем скоро Арти и Диана понимают, что постоянные школьные занятия и жизнь по строгому расписанию — это совсем не то, что нужно детям. Чтобы вернуть своим кровинушкам детство, «старая гвардия» вынуждена прибегнуть к нестандартным методам воспитания и использовать неожиданную тактику…

Изображение Изображение

Релиз группы: Изображение Раздача группы: Изображение

Качество: BDRip (1080p)
Формат: Matroska
Видео: MPEG-4 AVC, 21.7 Мбит/с, 1920x1040
Аудио №1: Русский (DTS, 48,0 КГц, 6 ch, 768 Кбит/c)
Аудио №2: Английский (AC3, 48,0 КГц, 6 ch, 640 Кбит/c)

MediaInfo
Общее
Уникальный идентификатор : 214005477160945230121500038208557345203 (0xA0FFF4A6F78DA63EB6E8A415A632E9B3)
Полное имя : C:\Фильмы\Roditelskij.bespredel.2012.D.BDRip.1080p.R.G.Daredevil.mkv
Формат : Matroska
Версия формата : Version 2
Размер файла : 17,2 Гбайт
Продолжительность : 1 ч. 44 м.
Общий поток : 23,6 Мбит/сек
Название фильма : IRONCLUB
Дата кодирования : UTC 2013-04-16 09:58:24
Программа кодирования : mkvmerge v5.2.0 ('I can't explain') built on Dec 18 2011 18:12:03
Библиотека кодирования : libebml v1.2.3 + libmatroska v1.3.0

Видео
Идентификатор : 1
Формат : AVC
Формат/Информация : Advanced Video Codec
Профиль формата : High@L4.1
Параметр CABAC формата : Да
Параметр ReFrames формата : 4 кадра
Идентификатор кодека : V_MPEG4/ISO/AVC
Продолжительность : 1 ч. 44 м.
Битрейт : 21,7 Мбит/сек
Ширина : 1920 пикселей
Высота : 1040 пикселей
Соотношение сторон : 1,85:1
Режим частоты кадров : Постоянный
Частота кадров : 23,976 кадра/сек
Цветовое пространство : YUV
Субдискретизация насыщенности : 4:2:0
Битовая глубина : 8 бит
Тип развёртки : Прогрессивная
Бит/(Пиксели*Кадры) : 0.453
Размер потока : 15,9 Гбайт (92%)
Заголовок : Parental.Guidance.2012.1080p.BluRay.DD5.1.x264-EbP
Библиотека кодирования : x264 core 129 r2245 bc13772
Настройки программы : cabac=1 / ref=4 / deblock=1:-3:-3 / analyse=0x3:0x133 / me=tesa / subme=10 / psy=1 / psy_rd=1.10:0.00 / mixed_ref=1 / me_range=24 / chroma_me=1 / trellis=2 / 8x8dct=1 / cqm=0 / deadzone=21,11 / fast_pskip=0 / chroma_qp_offset=-2 / threads=12 / lookahead_threads=2 / sliced_threads=0 / nr=0 / decimate=0 / interlaced=0 / bluray_compat=0 / constrained_intra=0 / bframes=8 / b_pyramid=2 / b_adapt=2 / b_bias=0 / direct=3 / weightb=1 / open_gop=0 / weightp=2 / keyint=250 / keyint_min=23 / scenecut=40 / intra_refresh=0 / rc=crf / mbtree=0 / crf=18.0 / qcomp=0.60 / qpmin=0 / qpmax=69 / qpstep=4 / ip_ratio=1.30 / pb_ratio=1.30 / aq=1:0.60
Язык : English
Default : Да
Forced : Да

Аудио #1
Идентификатор : 2
Формат : DTS
Формат/Информация : Digital Theater Systems
Режим : 16
Параметр Endianness формата : Big
Идентификатор кодека : A_DTS
Продолжительность : 1 ч. 44 м.
Вид битрейта : Постоянный
Битрейт : 768 Кбит/сек
Каналы : 6 каналов
Расположение каналов : Front: L C R, Side: L R, LFE
Частота : 48,0 КГц
Битовая глубина : 24 бит
Метод сжатия : С потерями
Размер потока : 575 Мбайт (3%)
Заголовок : DD 5.1 @ 768 kbps - DUB, BD CEE
Язык : Russian
Default : Да
Forced : Да

Аудио #2
Идентификатор : 3
Формат : AC-3
Формат/Информация : Audio Coding 3
Расширение режима : CM (complete main)
Параметр Endianness формата : Big
Идентификатор кодека : A_AC3
Продолжительность : 1 ч. 44 м.
Вид битрейта : Постоянный
Битрейт : 640 Кбит/сек
Каналы : 6 каналов
Расположение каналов : Front: L C R, Side: L R, LFE
Частота : 48,0 КГц
Битовая глубина : 16 бит
Метод сжатия : С потерями
Размер потока : 479 Мбайт (3%)
Заголовок : DD 5.1 @ 640 kbps
Язык : English
Default : Нет
Forced : Нет

Текст #1
Идентификатор : 4
Формат : UTF-8
Идентификатор кодека : S_TEXT/UTF8
Идентификатор кодека/Информация : UTF-8 Plain Text
Заголовок : BD
Язык : Russian
Default : Нет
Forced : Нет

Текст #2
Идентификатор : 5
Формат : UTF-8
Идентификатор кодека : S_TEXT/UTF8
Идентификатор кодека/Информация : UTF-8 Plain Text
Заголовок : English
Язык : English
Default : Нет
Forced : Нет

Текст #3
Идентификатор : 6
Формат : UTF-8
Идентификатор кодека : S_TEXT/UTF8
Идентификатор кодека/Информация : UTF-8 Plain Text
Заголовок : Spanish
Язык : Spanish
Default : Нет
Forced : Нет

Меню
00:00:00.000 : en:00:00:00.000
00:04:49.789 : en:00:04:49.789
00:06:42.444 : en:00:06:42.444
00:09:24.856 : en:00:09:24.856
00:13:08.162 : en:00:13:08.162
00:16:42.835 : en:00:16:42.835
00:19:11.650 : en:00:19:11.650
00:22:42.861 : en:00:22:42.861
00:25:47.379 : en:00:25:47.379
00:30:00.799 : en:00:30:00.799
00:31:15.123 : en:00:31:15.123
00:33:49.486 : en:00:33:49.486
00:35:27.334 : en:00:35:27.334
00:37:01.845 : en:00:37:01.845
00:39:54.976 : en:00:39:54.976
00:41:19.060 : en:00:41:19.060
00:48:07.009 : en:00:48:07.009
00:51:57.281 : en:00:51:57.281
00:54:04.366 : en:00:54:04.366
00:57:10.010 : en:00:57:10.010
00:59:36.740 : en:00:59:36.740
01:05:33.138 : en:01:05:33.138
01:09:09.687 : en:01:09:09.687
01:13:21.439 : en:01:13:21.439
01:15:12.591 : en:01:15:12.591
01:20:22.067 : en:01:20:22.067
01:26:16.046 : en:01:26:16.046
01:28:42.275 : en:01:28:42.275
01:31:47.210 : en:01:31:47.210
01:35:07.452 : en:01:35:07.452
01:37:28.760 : en:01:37:28.760
Свернуть
Знаете ли вы, что...
Бабалу Мэндел и Лауэлл Ганц приложили руку к финальной версии сценария.

Красный с белым маяк, показанный в фильме, расположен в Харбор-Тауне, Хилтон-Хед-Айленд, Южная Каролина, США.

Первая главная роль Билли Кристала после фильма «Анализируй то» (2002).

Из-за того что фильм был снят поздней осенью, трава у дома в Атланте на тот момент уже выглядела пожухлой, и ее пришлось окрашивать в зеленый цвет при помощи компьютерной графики.

Арти говорит, что всего существует шесть фильмов «Пила», после того как посмотрел первый. На самом деле их семь.

Свернуть
Скриншоты
Изображение
Изображение
Изображение
Изображение
Свернуть
В сети
Профиль  
Начать новую темуОтветить на тему  [ 1 сообщение ] 
Вы не можете начинать темы
Вы не можете отвечать на сообщения
Вы не можете редактировать свои сообщения
Вы не можете удалять свои сообщения