Правила форума

  • В этом разделе создание новых тем Запрещено.
  • Для создания новых тем пользуйтесь Корневым разделом DVD и HD фильмы.
Начать новую темуОтветить на тему  [ Сообщений: 3 ] 
Торрент файл
Размер: 4.32 GB • Зарегистрирован: 5 лет 7 месяцев • Статус: Проверено
Скачан: 302 раза • Желающих скачать: 0 • Поблагодарили: 54 раза
 Раздают: 0  |  0 KB/s  ]   Качают: 0  |  0 KB/s  ] 
 Полного источника не было 20 часов 
Сообщения
 Добавлено: 2011-04-25 20:26
Аватара пользователя
Стаж: 9 лет
Возраст: 27
Сообщений: 1386
Спасибок: 16115
Лайков: 14
Изображение

Рок-н-рольщик / RocknRolla

«Секс, стволы и рок-н-ролл!»

Год выпуска: 2008
Страна: Изображение США, Изображение Великобритания
Жанр: боевик, триллер, криминал
Продолжительность: 01:54:19
Перевод: Профессиональный (полное дублирование) + Одноголосый закадровый (Гоблин aka Пучков)

Режиссер: Гай Ричи
Сценарий: Гай Ричи
Продюсер: Стив Кларк-Холл, Сьюзен Дауни, Гай Ричи
Оператор: Дэвид Хиггс
Композитор: Стив Айлс

В ролях: Нонсо Анози, Шарлотта Армер, Джемма Артертон, Дэвид Барк-Джоунс, Джофф Белл, Жерар Батлер, Джэми Кэмпбелл Бауэн, Идрис Эльба, Том Харди, Toby Kebbell, Мэтт Кинг, Дэвид Леон, Энди Линден, Лудакрис, Роланд Манукян, Dragan Micanovic, Джими Мистри, Тиффани Мулрон, Тэнди Ньютон, Джереми Пивен, James Puddephatt

Описание: Фильм окунет вас в опасный мир коррупции и жизни криминальных отбросов современного Лондона, где недвижимость потеснила такого внушительного лидера торгового рынка, как наркотики, а самыми активными предпринимателями стали преступные группировки. Но каждому, кто захочет проворачивать там свои дела, будь то мелкая сошка Раз-два или русский теневой миллиардер Юрий Омович, придется сначала договориться с одним и тем же человеком — Ленни Коулом.

Релиз: Изображение

Раздача: Изображение

Изображение

Доп. информация
Бюджет: $18 000 000
Сборы в мире: + $20 027 463 = $25 728 089
Сборы в США: $5 700 626
Сборы в России: $1 619 891
Премьера (мир): 4 сентября 2008
Премьера (РФ): 29 января 2009, «Каро-Премьер»
Релиз на DVD: 10 марта 2011, «CP-Digital»
Рейтинг R — Restricted. Подростки до 17 лет допускаются на фильм только в сопровождении одного из родителей
Изображение
Ограничение — до 17 лет требуется сопровождение родителя или взрослого опекуна (возраст может меняться в некоторых регионах). Данный рейтинг показывает, что оценочная комиссия заключила, что некоторый материал оценённого фильма предназначается для взрослых. Родители должны больше узнать о фильме прежде, чем взять на его просмотр детей. Рейтинг R также может быть назначен из-за используемого в фильме языка, темы, насилия, секса или изображения употребления наркотиков.
Свернуть
Свернуть
Знаете ли вы, что...
* Прототипом главного героя стал вокалист «Babyshambles» Пит Доэрти (Pete Doherty).
* Перевод для проката в России делал Дмитрий «Гоблин» Пучков.
* На самом деле, в русском языке слово «рок-н-ролльщик» пишется с двумя буквами «л».
* Пулемётный монтаж в сексуальной сцене был сделан из-за того, что в день съёмок у Джерарда Батлера была серьёзная инфекция дыхательных путей, и Тэнди Ньютон отказалась с ним целоваться. Гаю Ричи пришлось импровизировать.
* Фильм, который смотрит «Танк» в сцене в машине, когда к нему подсаживается Арчи, это «На исходе дня» с Энтони Хопкинсом, Эммой Томпсон и Хью Грантом.
* Режиссер картины Гай Ричи появляется камео, проезжая на велосипеде мимо Романа и Микки, когда они приближаются к дому Джонни.
Свернуть


Качество: BDRip 1080p
Формат: MKV
Видео: 1920x800, 4419 Кбит/сек, 23,976 кадр/сек, AVC, x264, 2.400, 0.120 Бит/(Пиксели*Кадры)
Аудио #1: AC-3, 384 Кбит/сек, 6 канала(ов), 48,0 КГц
Аудио #2: AC-3, 384 Кбит/сек, 6 канала(ов), 48,0 КГц


Скриншоты

Изображение

Изображение

Изображение

Свернуть
MI
Формат : Matroska
Размер файла : 4,32 Гбайт
Продолжительность : 1 ч. 54 м.
Общий поток : 5412 Кбит/сек
Название фильма : Rip by Tembr
Дата кодирования : UTC 2011-03-30 13:05:25
Программа кодирования : mkvmerge v3.2.0 ('Beginnings') built on Feb 12 2010 16:46:17
Библиотека кодирования : libebml v0.7.9 + libmatroska v0.8.1

Видео
Идентификатор : 1
Формат : AVC
Формат/Информация : Advanced Video Codec
Профиль формата : High@L4.1
Параметр CABAC формата : Да
Параметр ReFrames формата : 3 кадра
Параметры GOP формата : M=4, N=24
Идентификатор кодека : V_MPEG4/ISO/AVC
Продолжительность : 1 ч. 54 м.
Вид битрейта : Переменный
Битрейт : 4690 Кбит/сек
Максимальный битрейт : 15,0 Мбит/сек
Ширина : 1920 пикс.
Высота : 800 пикс.
Соотношение сторон : 2,40:1
Частота кадров : 23,976 кадр/сек
Цветовое пространство : YUV
Подвыборка цветности : 4:2:0
Битовая глубина : 8 бит
Тип развёртки : Прогрессивная
Бит/(Пиксели*Кадры) : 0.127
Размер потока : 3,62 Гбайт (84%)
Заголовок : Рок-н-рольщик.[NoLimits-Team.ru]
Библиотека кодирования : x264 core 114 r1913 5fd3dce
Настройки программы : cabac=1 / ref=1 / deblock=1:0:0 / analyse=0x3:0x3 / me=dia / subme=1 / psy=1 / psy_rd=0.00:0.00 / mixed_ref=0 / me_range=16 / chroma_me=1 / trellis=0 / 8x8dct=1 / cqm=0 / deadzone=21,11 / fast_pskip=1 / chroma_qp_offset=0 / threads=3 / sliced_threads=0 / slices=4 / nr=0 / decimate=1 / interlaced=0 / constrained_intra=0 / bframes=3 / b_pyramid=1 / b_adapt=1 / b_bias=0 / direct=1 / weightb=1 / open_gop=0 / weightp=1 / keyint=24 / keyint_min=1 / scenecut=40 / intra_refresh=0 / rc_lookahead=0 / rc=abr / mbtree=0 / bitrate=4690 / ratetol=1.0 / qcomp=0.60 / qpmin=0 / qpmax=69 / qpstep=4 / vbv_maxrate=15000 / vbv_bufsize=15000 / nal_hrd=vbr / ip_ratio=1.10 / pb_ratio=1.10 / aq=1:1.00
Язык : English

Аудио #1
Идентификатор : 2
Формат : AC-3
Формат/Информация : Audio Coding 3
Расширение режима : CM (complete main)
Идентификатор кодека : A_AC3
Продолжительность : 1 ч. 54 м.
Вид битрейта : Постоянный
Битрейт : 384 Кбит/сек
Каналы : 6 каналов
Расположение каналов : Front: L C R, Side: L R, LFE
Частота : 48,0 КГц
Битовая глубина : 16 бит
Метод сжатия : С потерями
Размер потока : 314 Мбайт (7%)
Заголовок : Одноголосый закадровый, Гоблин aka Пучков
Язык : Russian

Аудио #2
Идентификатор : 3
Формат : AC-3
Формат/Информация : Audio Coding 3
Расширение режима : CM (complete main)
Идентификатор кодека : A_AC3
Продолжительность : 1 ч. 54 м.
Вид битрейта : Постоянный
Битрейт : 384 Кбит/сек
Каналы : 6 каналов
Расположение каналов : Front: L C R, Side: L R, LFE
Частота : 48,0 КГц
Битовая глубина : 16 бит
Метод сжатия : С потерями
Размер потока : 314 Мбайт (7%)
Заголовок : Дубляж
Язык : Russian

Свернуть
Оформление раздачи:
Совунья
Не в сети
Профиль  
 Добавлено: 2011-08-15 17:10 (спустя 3 месяца 19 дней)
Top-releaser
Аватара пользователя
Стаж: 6 лет 7 месяцев
Сообщений: 2078
Спасибок: 3230
Лайков: 9
как фильм? :)
Не в сети
Профиль  
 Добавлено: 2011-08-22 16:36 (спустя 6 дней)
Аватара пользователя
Стаж: 7 лет 11 месяцев
Сообщений: 786
Спасибок: 25
Лайков: 9
В лучших традициях Ричи , Фильм супер :co_ol:
Не в сети
Профиль  
Начать новую темуОтветить на тему  [ Сообщений: 3 ] 
Вы не можете начинать темы
Вы не можете отвечать на сообщения
Вы не можете редактировать свои сообщения
Вы не можете удалять свои сообщения