Правила форума

  • В этом разделе создание новых тем Запрещено.
  • Для создания новых тем пользуйтесь Корневым разделом DVD и HD фильмы.
Начать новую темуОтветить на тему  [ Сообщений: 3 ] 
Торрент файл
Размер: 7.23 GB • Зарегистрирован: 4 года 1 месяц • Статус: Проверено
Скачан: 34 раза • Желающих скачать: 0 • Поблагодарили: 10 раз
 Раздают: 0  |  0 KB/s  ]   Качают: 0  |  0 KB/s  ] 
 Полного источника не было 3 года 1 месяц 
Сообщения
 Добавлено: 2012-10-09 22:34
Top-releaser
Аватара пользователя
Стаж: 6 лет 11 месяцев
Возраст: 23
Сообщений: 2084
Спасибок: 11190
Лайков: 13
Изображение

Рок на века
Rock of Ages

«Nothin' but a good time»


Год выпуска: 2012
Страна: США

Жанр: мюзикл, драма, мелодрама, комедия
Продолжительность: 02:03:22
Перевод: Профессиональный (полное дублирование)
Оригинальный


Режиссер: Адам Шенкман / Adam Shankman

Сценарий: Крис Д’Ариенцо / Chris D'Arienzo, Джастин Теру / Justin Theroux, Аллан Лоб / Allan Loeb
Продюсер: Скотт Прайсэнд / Scott Prisand, Адам Шенкман / Adam Shankman, Мэтт Уивер / Matt Weaver, Дженнифер Джибгот / Jennifer Gibgot, Гаррет Грант / Garrett Grant
Оператор: Боян Базелли / Bojan Bazelli

В ролях: Джулианна Хаф (Sherrie Christian), Диего Бонета (Drew Boley), Расселл Брэнд (Lonny), Пол Джаматти (Paul Gill), Кэтрин Зета-Джонс (Patricia Whitmore), Малин Акерман (Constance Sack), Мэри Джей Блайдж (Justice Charlier), Алек Болдуин (Dennis Dupree), Том Круз (Stacee Jaxx), Дакота Сэйдж Грант (Little Girl on Bus), Мэттью Раш Салливан (Random Guy), Константин Марулись (Record Executive)

Дублёры: Наталья Фищук (Sherrie Christian), Александр Гаврилин (Drew Boley), Антон Эльдаров (Lonny), Константин Карасик (Paul Gill), Ольга Плетнёва (Patricia Whitmore), Дарья Фролова (Constance Sack), Анжелика Рулла (Justice Charlier), Алексей Рязанцев (Dennis Dupree), Всеволод Кузнецов (Stacee Jaxx), Андрей Данилюк
Описание:
Девушка из маленького города приезжает в Голливуд, чтобы покорить его музыкальную сцену, но вопреки мечтам оказывается раздавленной безжалостной Фабрикой Грез. Но на нее обращает внимание экс-звезда рок-сцены Стэйси Джеккс, а сама девушка, хоть и устраивается работать в стрипклуб, обретает настоящую любовь.

Изображение
| MPAA: Изображение - Детям до 13 лет просмотр не желателен


 Раздача: Изображение

Качество: BDRip 720р
Формат: MKV
Видео: AVC; 1280x534 (2.40:1); 6500 Kbps; 23,976 fps; 0,397 bpp
Аудио №1: AC3; 384 Kbps; CBR; 6 ch; 16 bit; // русский
Аудио №2: DTS; 1510 Kbps; CBR; 6 ch; 24 bit; // английский
Субтитры: русские, английские

Размер файла: 7,23 GB

Изображение

MediaInfo:
General
Unique ID                                : 222653850800485355603410423423125484865 (0xA7819264B1D3E862980E892E4C50F541)
Complete name                            : C:\temp\z-Torrents\Completed\Rok.Na.Veka.2012.BDRip.720p.junk666.[R.G.KiNOvNiNO].mkv
Format                                   : Matroska
Format version                           : Version 2
File size                                : 7.23 GiB
Duration                                 : 2h 3mn
Overall bit rate                         : 8 389 Kbps
Encoded date                             : UTC 2012-10-09 14:37:54
Writing application                      : mkvmerge v4.6.0 ('Still Crazy After All These Years') сборка от Mar 10 2011 02:50:32
Writing library                          : libebml v1.2.0 + libmatroska v1.1.0

Video
ID                                       : 1
Format                                   : AVC
Format/Info                              : Advanced Video Codec
Format profile                           : High@L4.1
Format settings, CABAC                   : Yes
Format settings, ReFrames                : 12 frames
Muxing mode                              : Header stripping
Codec ID                                 : V_MPEG4/ISO/AVC
Duration                                 : 2h 3mn
Bit rate                                 : 6 500 Kbps
Width                                    : 1 280 pixels
Height                                   : 534 pixels
Display aspect ratio                     : 2.40:1
Frame rate                               : 23.976 fps
Color space                              : YUV
Chroma subsampling                       : 4:2:0
Bit depth                                : 8 bits
Scan type                                : Progressive
Bits/(Pixel*Frame)                       : 0.397
Stream size                              : 5.45 GiB (75%)
Title                                    : Rock of Ages 2012 720p Bluray DTS x264-IRONCLUB
Writing library                          : x264 core 128 r2216 198a7ea
Encoding settings                        : cabac=1 / ref=12 / deblock=1:-3:-3 / analyse=0x3:0x113 / me=umh / subme=11 / psy=1 / psy_rd=1.10:0.00 / mixed_ref=1 / me_range=16 / chroma_me=1 / trellis=2 / 8x8dct=1 / cqm=0 / deadzone=21,11 / fast_pskip=0 / chroma_qp_offset=-2 / threads=12 / lookahead_threads=2 / sliced_threads=0 / nr=0 / decimate=0 / interlaced=0 / bluray_compat=0 / constrained_intra=0 / bframes=9 / b_pyramid=2 / b_adapt=2 / b_bias=0 / direct=3 / weightb=1 / open_gop=0 / weightp=2 / keyint=250 / keyint_min=23 / scenecut=40 / intra_refresh=0 / rc=2pass / mbtree=0 / bitrate=6500 / ratetol=1.0 / qcomp=0.60 / qpmin=0 / qpmax=69 / qpstep=4 / cplxblur=20.0 / qblur=0.5 / ip_ratio=1.40 / pb_ratio=1.30 / aq=1:0.80
Language                                 : English
Default                                  : Yes
Forced                                   : Yes

Audio #1
ID                                       : 2
Format                                   : AC-3
Format/Info                              : Audio Coding 3
Mode extension                           : CM (complete main)
Muxing mode                              : Header stripping
Codec ID                                 : A_AC3
Duration                                 : 2h 3mn
Bit rate mode                            : Constant
Bit rate                                 : 384 Kbps
Channel(s)                               : 6 channels
Channel positions                        : Front: L C R, Side: L R, LFE
Sampling rate                            : 48.0 KHz
Bit depth                                : 16 bits
Compression mode                         : Lossy
Stream size                              : 339 MiB (5%)
Title                                    : DD 5.1 @ 384 kbps - Dub, R5
Language                                 : Russian
Default                                  : Yes
Forced                                   : Yes

Audio #2
ID                                       : 3
Format                                   : DTS
Format/Info                              : Digital Theater Systems
Muxing mode                              : Header stripping
Codec ID                                 : A_DTS
Duration                                 : 2h 3mn
Bit rate mode                            : Constant
Bit rate                                 : 1 510 Kbps
Channel(s)                               : 6 channels
Channel positions                        : Front: L C R, Side: L R, LFE
Sampling rate                            : 48.0 KHz
Bit depth                                : 24 bits
Compression mode                         : Lossy
Delay relative to video                  : 11ms
Stream size                              : 1.30 GiB (18%)
Title                                    : DTS 5.1 @ 1536 kbps
Language                                 : English
Default                                  : No
Forced                                   : No

Text #1
ID                                       : 4
Format                                   : UTF-8
Codec ID                                 : S_TEXT/UTF8
Codec ID/Info                            : UTF-8 Plain Text
Title                                    : Forced
Language                                 : Russian
Default                                  : No
Forced                                   : No

Text #2
ID                                       : 5
Format                                   : UTF-8
Codec ID                                 : S_TEXT/UTF8
Codec ID/Info                            : UTF-8 Plain Text
Title                                    : SDH
Language                                 : English
Default                                  : No
Forced                                   : No

Menu
00:00:00.000                             : en:00:00:00.000
00:11:04.205                             : en:00:11:04.205
00:19:52.691                             : en:00:19:52.691
00:32:12.722                             : en:00:32:12.722
00:41:51.342                             : en:00:41:51.342
00:51:37.260                             : en:00:51:37.260
00:59:43.913                             : en:00:59:43.913
01:10:37.900                             : en:01:10:37.900
01:20:36.539                             : en:01:20:36.539
01:30:10.905                             : en:01:30:10.905
01:41:32.669                             : en:01:41:32.669
01:51:15.752                             : en:01:51:15.752
01:56:23.476                             : en:01:56:23.476

Свернуть

Дополнительная информация:
Бюджет: $75 000 000
Сборы в США: $38 518 613
Сборы в России: $787 653
Сборы в мире: $51 818 613

Мировая премьера: 13 июня 2012
Релиз на DVD: 11 октября 2012, «CP Дистрибуция»
Релиз на Blu-ray: 11 октября 2012, «CP Дистрибуция»
Свернуть
"Знаете ли Вы, что..."
  • «Рок на века» - это киноадаптация одноименного бродвейского мюзикла, поставленного по книге Криса Д`Ариенцо.
  • На роль Дэнниса Дюпри претендовали Уилл Феррелл и Стив Карелл.
  • Тейлор Свифт могла сыграть Шерри, но роль получила Джулианна Хаф.
  • Энн Хэтэуэй и Эми Адамс предлагали роль Констанции, но обе отказались по причине несогласованности расписания съемок. Хэтэуэй была занята съемками в «Темный рыцарь: Возрождение легенды» (2012), а Адамс в фильме «Человек из стали» (2013). В итоге на эту роль взяли Малин Акерман, снимавшуюся в фильме «Хранители» (2009).
  • До того как Малин Акерман получила роль, на ее место рассматривались Гвинет Пэлтроу и Оливия Уайлд.
Свернуть
Скриншоты:
Изображение

Изображение

Изображение

Изображение
Свернуть
_________________
Изображение
РАЗДАЧИ БОЛЬШЕ НЕ ПОДДЕРЖИВАЮ, простите.
Не в сети
Профиль  
 Добавлено: 2012-10-11 17:52 (спустя 1 день 19 часов)
Аватара пользователя
Стаж: 7 лет 11 месяцев
Сообщений: 47
Спасибок: 29
Лайков: 2
тут субтитры и на песни есть? или только на надписи как в некоторых раздачах?
_________________
Изображение
Не в сети
Профиль  
 Добавлено: 2012-10-11 18:19 (спустя 27 минут)
Top-releaser
Аватара пользователя
Стаж: 6 лет 11 месяцев
Возраст: 23
Сообщений: 2084
Спасибок: 11190
Лайков: 13

ice.tito!:

тут субтитры и на песни есть? или только на надписи как в некоторых раздачах?
К сожалению субтитры только на надписи.
_________________
Изображение
РАЗДАЧИ БОЛЬШЕ НЕ ПОДДЕРЖИВАЮ, простите.
Не в сети
Профиль  
Начать новую темуОтветить на тему  [ Сообщений: 3 ] 
Вы не можете начинать темы
Вы не можете отвечать на сообщения
Вы не можете редактировать свои сообщения
Вы не можете удалять свои сообщения