Правила форума

  • В этом разделе создание новых тем Запрещено.
  • Для создания новых тем пользуйтесь Корневым разделом DVD и HD фильмы.
Начать новую темуОтветить на тему  [ Сообщений: 3 ] 
Торрент файл
Размер: 4.37 GB • Зарегистрирован: 4 года 1 месяц • Статус: Проверено
Скачан: 86 раз • Желающих скачать: 0 • Поблагодарили: 23 раза
 Раздают: 0  |  0 KB/s  ]   Качают: 0  |  0 KB/s  ] 
 Полного источника не было 2 месяца 22 дня 
Сообщения
 Добавлено: 2012-10-14 22:47
Аватара пользователя
Стаж: 7 лет 4 месяца
Возраст: 21
Сообщений: 419
Спасибок: 12706
Лайков: 18
Изображение
Рок на века / Rock of Ages

«Nothin' but a good time»

Год выпуска: 2012
Страна: США
Жанр: Мюзикл, драма, мелодрама, комедия
Продолжительность: 02:03:22
Перевод: Профессиональный (полное дублирование) [Лицензия]

Режиссер: Адам Шенкман
Сценарий: Крис Д’Ариенцо, Джастин Теру, Аллан Лоб
Продюсер: Скотт Прайсэнд, Адам Шенкман, Мэтт Уивер
Оператор: Боян Базелли

В ролях: Диего Гонсалес Бонета, Джулианна Хаф, Рассел Брэнд, Том Круз, Алек Болдуин, Мэри Джей Блайдж, Пол Джиаматти, Малин Акерман, Кэтрин Зета-Джонс, Брайан Кренстон

Описание: Девушка из маленького города приезжает в Голливуд, чтобы покорить его музыкальную сцену, но вопреки мечтам оказывается раздавленной безжалостной Фабрикой Грез. Но на нее обращает внимание экс-звезда рок-сцены Стэйси Джеккс, а сама девушка, хоть и устраивается работать в стрипклуб, обретает настоящую любовь.

Раздача: Изображение


kinopoisk.ru: 7.215 (3 964)
imdb.com: 6.10 (15 068)


Бюджет: $75 000 000
Сборы в мире: $51 818 613
Сборы в США: $38 518 613
Сборы в России: $787 653
Мировая премьера: 13 июня 2012
Премьера РФ: 14 июня 2012, «Каро-Премьер»
Релиз на DVD: 11 октября 2012, «CP Дистрибуция»
Релиз на Blu-Ray: 11 октября 2012, «CP Дистрибуция»

Качество: BDRip [1080p]
Формат: Matroska
Видео: 1920x800, 4683 Кбит/сек, 23,976 кадр/сек, AVC, x264, 2,40:1, 0.127 Бит/[Пиксели*Кадры], 2pass
Аудио: AC-3, 384 Кбит/сек, 6 канала(ов), 48,0 КГц


Изображение

Знаете ли Вы, что...
• «Рок на века» — киноадаптация одноименного бродвейского мюзикла, поставленного по книге Криса Д`Ариенцо.
• На роль Дэнниса Дюпри претендовали Уилл Феррелл и Стив Карелл.
• Тейлор Свифт могла сыграть Шерри, но роль получила Джулианна Хаф.
• Энн Хэтэуэй и Эми Адамс предлагали роль Констанции, но обе отказались по причине несогласованности расписания съемок. Хэтэуэй была занята съемками в «Темный рыцарь: Возрождение легенды» (2012), а Адамс в фильме «Человек из стали» (2013). В итоге на эту роль взяли Малин Акерман, снимавшуюся в фильме «Хранители» (2009).
• До того как Малин Акерман получила роль, на ее место рассматривались Гвинет Пэлтроу и Оливия Уайлд.
Свернуть


MediaInfo:
Общее
Уникальный идентификатор : 212660363691536862114590521747408083707 (0x9FFCE57019F31B77A10D70CAC3AEDAFB)
Полное имя : D:TorrentRock.of.ages.2012.x264.BDRip.1080p.DUB.mkv
Формат : Matroska
Версия формата : Version 2
Размер файла : 4,37 Гбайт
Продолжительность : 2 ч. 3 м.
Общий поток : 5067 Кбит/сек
Дата кодирования : UTC 2012-10-10 02:57:14
Программа кодирования : mkvmerge v5.5.0 ('Healer') built on Apr 6 2012 21:43:24
Библиотека кодирования : libebml v1.2.3 + libmatroska v1.3.0

Видео
Идентификатор : 1
Формат : AVC
Формат/Информация : Advanced Video Codec
Профиль формата : High@L4.0
Параметр CABAC формата : Да
Параметр ReFrames формата : 4 кадра
Идентификатор кодека : V_MPEG4/ISO/AVC
Продолжительность : 2 ч. 3 м.
Битрейт : 4683 Кбит/сек
Ширина : 1920 пикселей
Высота : 800 пикселей
Соотношение сторон : 2,40:1
Частота кадров : 23,976 кадра/сек
Цветовое пространство : YUV
Субдискретизация насыщенности : 4:2:0
Битовая глубина : 8 бит
Тип развёртки : Прогрессивная
Бит/(Пиксели*Кадры) : 0.127
Размер потока : 3,95 Гбайт (90%)
Заголовок : Рок на века
Библиотека кодирования : x264 core 128 r2216 198a7ea
Настройки программы : cabac=1 / ref=4 / deblock=1:0:0 / analyse=0x3:0x133 / me=hex / subme=7 / psy=1 / psy_rd=1.00:0.00 / mixed_ref=1 / me_range=16 / chroma_me=1 / trellis=1 / 8x8dct=1 / cqm=0 / deadzone=21,11 / fast_pskip=1 / chroma_qp_offset=-2 / threads=12 / lookahead_threads=2 / sliced_threads=0 / nr=0 / decimate=1 / interlaced=0 / bluray_compat=0 / constrained_intra=0 / bframes=3 / b_pyramid=2 / b_adapt=1 / b_bias=0 / direct=1 / weightb=1 / open_gop=0 / weightp=2 / keyint=240 / keyint_min=23 / scenecut=40 / intra_refresh=0 / rc_lookahead=40 / rc=2pass / mbtree=1 / bitrate=4683 / ratetol=1.0 / qcomp=0.60 / qpmin=10 / qpmax=51 / qpstep=4 / cplxblur=20.0 / qblur=0.5 / ip_ratio=1.40 / aq=1:1.00
Язык : English
Default : Да
Forced : Нет

Аудио
Идентификатор : 2
Формат : AC-3
Формат/Информация : Audio Coding 3
Расширение режима : CM (complete main)
Идентификатор кодека : A_AC3
Продолжительность : 2 ч. 3 м.
Вид битрейта : Постоянный
Битрейт : 384 Кбит/сек
Каналы : 6 каналов
Расположение каналов : Front: L C R, Side: L R, LFE
Частота : 48,0 КГц
Битовая глубина : 16 бит
Метод сжатия : С потерями
Размер потока : 339 Мбайт (8%)
Заголовок : Дублированный
Язык : Russian
Default : Да
Forced : Нет
Свернуть


Скриншоты


Изображение


Изображение


Изображение


Изображение


Свернуть
Не в сети
Профиль  
 Добавлено: 2012-12-03 19:38 (спустя 1 месяц 19 дней)
Стаж: 6 лет 8 месяцев
Сообщений: 2
:a_g_a: Спасибо!!!!
Не в сети
Профиль  
 Добавлено: 2013-05-27 19:37 (спустя 5 месяцев 23 дня)
Стаж: 7 лет 5 месяцев
Сообщений: 34
Оператор доверия не внушает)))

Добавлено спустя 1 минута:
Офигенный мюзикл! Том Круз вообще красавчик, сыграл на "отлично"!!!
Не в сети
Профиль  
Начать новую темуОтветить на тему  [ Сообщений: 3 ] 
Вы не можете начинать темы
Вы не можете отвечать на сообщения
Вы не можете редактировать свои сообщения
Вы не можете удалять свои сообщения