Правила форума

  • В этом разделе создание новых тем Запрещено.
  • Для создания новых тем пользуйтесь Корневым разделом DVD и HD фильмы.
Начать новую темуОтветить на тему  [ Сообщений: 7 ] 
Торрент файл
Размер: 31.76 GB • Зарегистрирован: 4 года • Статус: Проверено
Скачан: 88 раз • Желающих скачать: 0 • Поблагодарили: 33 раза
 Раздают: 0  |  0 KB/s  ]   Качают: 0  |  0 KB/s  ] 
 Полного источника не было 20 часов 
Сообщения
 Добавлено: 2012-12-07 10:32
Top-releaser
Аватара пользователя
Стаж: 6 лет 7 месяцев
Сообщений: 2078
Спасибок: 3230
Лайков: 9
Рокки. Полное собрание / Rocky. Full Collection

Изображение


Рокки / Rocky
Изображение

Рокки
Rocky


Год выпуска: 1976
Страна: США
Слоган: «His whole life was a million-to-one shot.»
Жанр: драма, спорт
Продолжительность: 01:59:35
Перевод: Профессиональный (многоголосый, закадровый)
Продюсер: Роберт Чартофф, Джин Кирквуд, Ирвин Уинклер
Композитор: Билл Конти, Фрэнк Сталлоне
В ролях: Сильвестр Сталлоне, Талия Шайр, Берт Янг, Карл Уэзерс, Бёрджесс Мередит, Тэйер Дэвид, Джо Спинелл, Джимми Гамбина, Билл Болдуин ст., Аль Сильвани, Джордж Меммоли, Джоди Летиция
Бюджет: $1 100 000
Сборы в США: $117 235 147
Сборы в мире: $225 000 000
Мировая премьера: 21 ноября 1976
Релиз на DVD: 28 августа 2008, «Двадцатый Век Фокс СНГ»
Описание: Кто такой Рокки Бальбоа? - это человек легенда, застенчивый, но чрезвычайно упрямый и талантливый боксер, который не щадил себя и поднялся с самого дна на вершину славы.
Своим обаянием он завоевывает сердца миллионов, а кровавыми поединками шокирует даже профессионалов. Он изматывает себя изнурительными тренировками и мечтает о поясе чемпиона мира. Как бультерьер он набрасывается на своих противников, какими бы опасными они не были.
Ему наплевать, что его лицо превращается в кровавое месиво, он всегда идет до самого конца, и кажется, что он скорее умрет, чем покажет свою слабость.

Раздача группы: Изображение

Изображение User Rating: 7.947 (28 824)
Изображение User Rating: 8.10 (178 293)
MPAA: PG - Рекомендуется присутствие родителей
Качество: BDRip, 720p
Формат: Matroska
Видео: AVC; 1280x696 (16:9); 4606 Kbps; 23,976 fps; 0,216 bit/pixel
Аудио №1: Russian; AC3; 448 Kbps; CBR; 6 ch (Многоголосый)
Аудио №2: Russian; AC3; 448 Kbps; CBR; 6 ch (Многоголосый)
Аудио №3: Russian; AC3; 448 Kbps; CBR; 6 ch (Гаврилов)
Аудио №4: English; AC3; 448 Kbps; CBR; 6 ch

Субтитры: Russian, English

MediaInfo
Общее
Уникальный идентификатор : 178141240250177000354830795432139590519 (0x8604C140A7B97AEB828FED7D8EFA8B77)
Полное имя : Z:\WWW\TR-Downloads\Rocky_[Full_Collection]_BDRip_720p[R.G.Daredevil]\Rocky1.1976.BDRip.720p.2xMVO.Gavilov.eng.sub.mkv
Формат : Matroska
Версия формата : Version 2
Размер файла : 5,45 Гбайт
Продолжительность : 1 ч. 59 м.
Общий поток : 6528 Кбит/сек
Дата кодирования : UTC 2009-12-08 12:24:58
Программа кодирования : mkvmerge v2.9.7 ('Tenderness') built on Jul 1 2009 18:43:35
Библиотека кодирования : libebml v0.7.7 + libmatroska v0.8.1

Видео
Идентификатор : 1
Формат : AVC
Формат/Информация : Advanced Video Codec
Профиль формата : High@L4.1
Параметр CABAC формата : Да
Параметр ReFrames формата : 8 кадров
Идентификатор кодека : V_MPEG4/ISO/AVC
Продолжительность : 1 ч. 59 м.
Битрейт : 4735 Кбит/сек
Ширина : 1280 пикселей
Высота : 696 пикселей
Соотношение сторон : 1,85:1
Частота кадров : 23,976 кадра/сек
Цветовое пространство : YUV
Субдискретизация насыщенности : 4:2:0
Битовая глубина : 8 бит
Тип развёртки : Прогрессивная
Бит/(Пиксели*Кадры) : 0.222
Размер потока : 3,85 Гбайт (71%)
Библиотека кодирования : x264 core 79 r1342 e8501ef
Настройки программы : cabac=1 / ref=8 / deblock=1:-2:-1 / analyse=0x3:0x113 / me=umh / subme=10 / psy=1 / psy_rd=0.9:0.2 / mixed_ref=1 / me_range=32 / chroma_me=1 / trellis=2 / 8x8dct=1 / cqm=0 / deadzone=21,11 / chroma_qp_offset=-3 / threads=6 / nr=0 / decimate=1 / mbaff=0 / constrained_intra=0 / bframes=6 / b_pyramid=0 / b_adapt=2 / b_bias=0 / direct=1 / wpredb=1 / wpredp=2 / keyint=250 / keyint_min=25 / scenecut=40 / rc_lookahead=50 / rc=2pass / mbtree=1 / bitrate=4735 / ratetol=1.0 / qcomp=0.60 / qpmin=10 / qpmax=51 / qpstep=4 / cplxblur=20.0 / qblur=0.5 / vbv_maxrate=50000 / vbv_bufsize=62500 / ip_ratio=1.40 / aq=1:1.00
Default : Да
Forced : Нет

Аудио #1
Идентификатор : 2
Формат : AC-3
Формат/Информация : Audio Coding 3
Расширение режима : CM (complete main)
Параметр Endianness формата : Big
Идентификатор кодека : A_AC3
Продолжительность : 1 ч. 59 м.
Вид битрейта : Постоянный
Битрейт : 448 Кбит/сек
Каналы : 6 каналов
Расположение каналов : Front: L C R, Side: L R, LFE
Частота : 48,0 КГц
Битовая глубина : 16 бит
Метод сжатия : С потерями
Размер потока : 383 Мбайт (7%)
Заголовок : MVO1
Язык : Russian
Default : Да
Forced : Нет

Аудио #2
Идентификатор : 3
Формат : AC-3
Формат/Информация : Audio Coding 3
Расширение режима : CM (complete main)
Параметр Endianness формата : Big
Идентификатор кодека : A_AC3
Продолжительность : 1 ч. 59 м.
Вид битрейта : Постоянный
Битрейт : 448 Кбит/сек
Каналы : 6 каналов
Расположение каналов : Front: L C R, Side: L R, LFE
Частота : 48,0 КГц
Битовая глубина : 16 бит
Метод сжатия : С потерями
Размер потока : 383 Мбайт (7%)
Заголовок : MVO2
Язык : Russian
Default : Нет
Forced : Нет

Аудио #3
Идентификатор : 4
Формат : AC-3
Формат/Информация : Audio Coding 3
Расширение режима : CM (complete main)
Параметр Endianness формата : Big
Идентификатор кодека : A_AC3
Продолжительность : 1 ч. 59 м.
Вид битрейта : Постоянный
Битрейт : 448 Кбит/сек
Каналы : 6 каналов
Расположение каналов : Front: L C R, Side: L R, LFE
Частота : 48,0 КГц
Битовая глубина : 16 бит
Метод сжатия : С потерями
Размер потока : 383 Мбайт (7%)
Заголовок : Gavrilov
Язык : Russian
Default : Нет
Forced : Нет

Аудио #4
Идентификатор : 5
Формат : AC-3
Формат/Информация : Audio Coding 3
Расширение режима : CM (complete main)
Параметр Endianness формата : Big
Идентификатор кодека : A_AC3
Продолжительность : 1 ч. 59 м.
Вид битрейта : Постоянный
Битрейт : 448 Кбит/сек
Каналы : 6 каналов
Расположение каналов : Front: L C R, Side: L R, LFE
Частота : 48,0 КГц
Битовая глубина : 16 бит
Метод сжатия : С потерями
Размер потока : 383 Мбайт (7%)
Язык : English
Default : Нет
Forced : Нет

Текст #1
Идентификатор : 6
Формат : UTF-8
Идентификатор кодека : S_TEXT/UTF8
Идентификатор кодека/Информация : UTF-8 Plain Text
Язык : Russian
Default : Да
Forced : Нет

Текст #2
Идентификатор : 7
Формат : UTF-8
Идентификатор кодека : S_TEXT/UTF8
Идентификатор кодека/Информация : UTF-8 Plain Text
Язык : English
Default : Нет
Forced : Нет
Свернуть
"Знаете ли Вы, что..."
  • Сильвестр Сталлоне продал права на производство этого фильма с условием, что он исполнит главную роль. Продюсеры же предлагали ему $150 000 за то, чтобы он позволил отдать эту роль Райану О`Нилу. Студия все-таки согласилась с условием, поставленным Сталлоне, поскольку бюджет картины изначально не превышал одного миллиона долларов (продюсерам даже пришлось заложить свои дома, чтобы осуществить производство ленты).
  • Сталлоне написал сценарий за три дня, после того как посмотрел боксерский поединок между Мухаммедом Али и никому не известным Чаком Уэпнером. Правда, в отличие от Рокки Уэпнер не смог продолжать бой, так как в пятнадцатом раунде был объявлен технический нокаут.
  • Фильм был снят за 28 дней.
  • Несмотря на протесты продюсеров, Сталлоне настоял на том, чтобы был снят эпизод, в котором Рокки накануне решающего боя признается Эдриан (Талия Шайр) в своих страхах и сомнениях. В итоге Сталлоне позволили сделать только один дубль, а он так сильно нервничал перед съемкой, что напился.
  • Сцену боксерского поединка снимали начиная с пятнадцатого раунда, поскольку в этом эпизоде Сталлоне и его партнер Карл Уэзерс должны были быть сильно загримированы. Ход боя снимался в обратном хронологическом порядке, то есть грима на лицах актеров становилось все меньше и меньше. За этот технологический прием фильм был удостоен ’Оскара’ в номинации за ’Лучший монтаж’. Картина также первенствовала в категориях ’Лучший фильм’ и ’Лучший режиссер’, а всего была номинирована на 10 премий.
  • Сталлоне стал на тот период третьим в истории актером, номинированным на ’Оскар’ одновременно за лучшую мужскую роль и лучший сценарий. Ранее подобной чести удостоились Чарли Чаплин (Великий диктатор) и Орсон Уэллс (Гражданин Кейн).
  • Создатели фильма планировали, что в сцене, предшествующей поединку между Рокки и Аполло, на экране появятся все бывшие чемпионы мира в тяжелом весе. Однако в назначенный день на съемку пришел только один из них - Джо Фрэйзер. Это оказалось очень кстати, поскольку Фрэйзер - житель Филадельфии, где разворачивается действие картины и где проходили съемки.
  • От роли Эдриан отказалась Бэтт Мидлер.
  • Когда к продюсерам попал сценарий, они еще не знали, кто такой Сталлоне. Кто-то показал им групповое фото из фильма «Лорды Флэтбуша» (1974), и они сразу же загорелись идеей снимать кино. Им только было непонятно, почему человек по фамилии Сталлоне - блондин с голубыми глазами. Позже выяснилось, что они перепутали Сталлоне с его партнером по фильму Перри Кингом. Когда же продюсерам показали настоящего Сталлоне, они были готовы тут же отказаться от проекта.
  • На съемках Сталлоне по-настоящему колотил кулаками по замороженному мясу. В итоге костяшки его пальцев стали практически плоскими и остались такими по сей день.
  • Роль Рокки предлагалась Джеймсу Каану.
  • В небольших эпизодах снялись отец и младший брат Сталлоне. Обоих зовут Фрэнк.
  • У актера, игравшего Гаццо, во время съемок случился приступ астмы, и ему пришлось срочно использовать ингалятор. Сцену было решено не переснимать, поскольку она выглядела вполне естественно.
  • Джон Эвилдсен хотел назвать картину «Рокки, простой парень с рабочих улиц».
  • Сильвестр Сталлоне написал сценарий фильма, сидя в комнате без окон и непрерывно куря плохие сигареты «Трэмпс».
  • Личный пёс Сталлоне, Буль мастифф, снялся в «Рокки». В титрах пес проходит под именем Баткуса Сталлоне.
Свернуть
Скриншоты

Изображение
Изображение
Изображение
Изображение
Изображение
Изображение
Свернуть
Свернуть

Рокки II / Rocky II
Изображение

Рокки 2
Rocky II


Год выпуска: 1979
Страна: США
Слоган: «Rocky shows he a champ, and wins!»
Жанр: боевик, драма, мелодрама, спорт
Продолжительность: 01:59:10
Перевод: Профессиональный (многоголосый, закадровый)
Продюсер: Роберт Чартофф, Артур Чобаниан, Ирвин Уинклер
В ролях: Сильвестр Сталлоне, Талия Шайр, Берт Янг, Карл Уэзерс, Бёрджесс Мередит, Тони Бертон, Джо Спинелл, Леонард Гейнс, Сильвия Милс, Фрэнк МакРей, Аль Сильвани, Джон Плешетт
Бюджет: $7 000 000
Сборы в США: $85 182 160
Мировая премьера: 15 июня 1979
Релиз на DVD: 27 августа 2009, «Двадцатый Век Фокс СНГ»
Описание: Проиграв по очкам в незабываемом поединке за звание чемпиона мира в первой части, Рокки Бальбоа пытается бросить спорт и начать новую спокойную жизнь. Однако, это у него не получается, ведь бокс - его призвание.
В итоге, несмотря на протесты молодой жены, Рокки принимает вызов своего старого соперника Апполо Крида на матч-реванш. Апполо пребывает в прекрасной физической форме и горит желанием отомстить за нанесенные ему в первом поединке побои. Так что у Рокки есть все шансы потерять не только жену, но и здоровье.

Раздача группы: Изображение

Изображение User Rating: 7.643 (11 554)
Изображение User Rating: 6.90 (68 079)
MPAA: PG - Рекомендуется присутствие родителей
Качество: BDRip, 720p
Формат: Matroska
Видео: AVC; 1280x696 (16:9); 4432 Kbps; 23,976 fps; 0,207 bit/pixel
Аудио №1: Russian; AC3; 640 Kbps; CBR; 6 ch (Киномания)
Аудио №2: Russian; AC3; 192 Kbps; CBR; 2 ch (Многоголосый)
Аудио №3: Russian; DTS; 754 Kbps; CBR; 6 ch; 24 bit (Гаврилов)
Аудио №4: English; DTS; 1509 Kbps; CBR; 6 ch; 24 bit

Субтитры: Russian, English

MediaInfo
Общее
Уникальный идентификатор : 183313672030712957609201180406781362715 (0x89E8EDD41EDDF5FCAD4C813302FCC21B)
Полное имя : Z:\WWW\TR-Downloads\Rocky_[Full_Collection]_BDRip_720p[R.G.Daredevil]\Rocky2.1979.BDRip.720p.2xMVO.Gavilov.eng.sub.mkv
Формат : Matroska
Версия формата : Version 2
Размер файла : 6,39 Гбайт
Продолжительность : 1 ч. 59 м.
Общий поток : 7681 Кбит/сек
Дата кодирования : UTC 2009-12-17 21:45:25
Программа кодирования : mkvmerge v2.9.7 ('Tenderness') built on Jul 1 2009 18:43:35
Библиотека кодирования : libebml v0.7.7 + libmatroska v0.8.1

Видео
Идентификатор : 1
Формат : AVC
Формат/Информация : Advanced Video Codec
Профиль формата : High@L4.1
Параметр CABAC формата : Да
Параметр ReFrames формата : 8 кадров
Идентификатор кодека : V_MPEG4/ISO/AVC
Продолжительность : 1 ч. 59 м.
Битрейт : 4583 Кбит/сек
Ширина : 1280 пикселей
Высота : 696 пикселей
Соотношение сторон : 1,85:1
Частота кадров : 23,976 кадра/сек
Цветовое пространство : YUV
Субдискретизация насыщенности : 4:2:0
Битовая глубина : 8 бит
Тип развёртки : Прогрессивная
Бит/(Пиксели*Кадры) : 0.215
Размер потока : 3,69 Гбайт (58%)
Библиотека кодирования : x264 core 79 r1342 e8501ef
Настройки программы : cabac=1 / ref=8 / deblock=1:-2:-2 / analyse=0x3:0x113 / me=umh / subme=10 / psy=1 / psy_rd=1.2:0.0 / mixed_ref=1 / me_range=32 / chroma_me=1 / trellis=2 / 8x8dct=1 / cqm=0 / deadzone=21,11 / chroma_qp_offset=-2 / threads=6 / nr=0 / decimate=1 / mbaff=0 / constrained_intra=0 / bframes=6 / b_pyramid=0 / b_adapt=2 / b_bias=0 / direct=1 / wpredb=1 / wpredp=2 / keyint=250 / keyint_min=25 / scenecut=40 / rc_lookahead=60 / rc=2pass / mbtree=1 / bitrate=4583 / ratetol=1.0 / qcomp=0.60 / qpmin=10 / qpmax=51 / qpstep=4 / cplxblur=20.0 / qblur=0.5 / vbv_maxrate=50000 / vbv_bufsize=62500 / ip_ratio=1.40 / aq=1:1.00
Default : Да
Forced : Нет

Аудио #1
Идентификатор : 2
Формат : AC-3
Формат/Информация : Audio Coding 3
Расширение режима : CM (complete main)
Параметр Endianness формата : Big
Идентификатор кодека : A_AC3
Продолжительность : 1 ч. 59 м.
Вид битрейта : Постоянный
Битрейт : 640 Кбит/сек
Каналы : 6 каналов
Расположение каналов : Front: L C R, Side: L R, LFE
Частота : 48,0 КГц
Битовая глубина : 16 бит
Метод сжатия : С потерями
Задержка видео : 2 с. 700 мс.
Размер потока : 546 Мбайт (8%)
Заголовок : Kinomania
Язык : Russian
Default : Да
Forced : Нет

Аудио #2
Идентификатор : 3
Формат : AC-3
Формат/Информация : Audio Coding 3
Расширение режима : CM (complete main)
Параметр Endianness формата : Big
Идентификатор кодека : A_AC3
Продолжительность : 1 ч. 59 м.
Вид битрейта : Постоянный
Битрейт : 192 Кбит/сек
Каналы : 2 канала
Расположение каналов : Front: L R
Частота : 48,0 КГц
Битовая глубина : 16 бит
Метод сжатия : С потерями
Задержка видео : 2 с. 400 мс.
Размер потока : 164 Мбайт (2%)
Заголовок : MVO
Язык : Russian
Default : Нет
Forced : Нет

Аудио #3
Идентификатор : 4
Формат : DTS
Формат/Информация : Digital Theater Systems
Идентификатор кодека : A_DTS
Продолжительность : 1 ч. 59 м.
Вид битрейта : Постоянный
Битрейт : 755 Кбит/сек
Каналы : 6 каналов
Расположение каналов : Front: L C R, Side: L R, LFE
Частота : 48,0 КГц
Битовая глубина : 24 бит
Метод сжатия : С потерями
Задержка видео : 950 мс.
Размер потока : 643 Мбайт (10%)
Заголовок : Gavrilov
Язык : Russian
Default : Нет
Forced : Нет

Аудио #4
Идентификатор : 5
Формат : DTS
Формат/Информация : Digital Theater Systems
Идентификатор кодека : A_DTS
Продолжительность : 1 ч. 59 м.
Вид битрейта : Постоянный
Битрейт : 1510 Кбит/сек
Каналы : 6 каналов
Расположение каналов : Front: L C R, Side: L R, LFE
Частота : 48,0 КГц
Битовая глубина : 24 бит
Метод сжатия : С потерями
Размер потока : 1,26 Гбайт (20%)
Язык : English
Default : Нет
Forced : Нет

Текст #1
Идентификатор : 6
Формат : UTF-8
Идентификатор кодека : S_TEXT/UTF8
Идентификатор кодека/Информация : UTF-8 Plain Text
Язык : Russian
Default : Да
Forced : Нет

Текст #2
Идентификатор : 7
Формат : UTF-8
Идентификатор кодека : S_TEXT/UTF8
Идентификатор кодека/Информация : UTF-8 Plain Text
Язык : English
Default : Нет
Forced : Нет
Свернуть
"Знаете ли Вы, что..."
  • В сцене тренировочного боя спарринг-партнера Рокки сыграл чемпион мира по боксу Роберто Дюран.
  • Готовясь к съемкам, Сильвестр Сталлоне серьезно повредил грудную мышцу.
  • В одной из версий сценария было указано настоящее имя Рокки - Роберт.
  • Около 800 школьников были привлечены к съемкам сцены пробежки Рокки через Южную Филадельфию.
Свернуть
Скриншоты

Изображение
Изображение
Изображение
Изображение
Изображение
Изображение
Свернуть
Свернуть

Рокки III / Rocky III
Изображение

Рокки 3
Rocky III


Год выпуска: 1982
Страна: США
Слоган: «The greatest challenge.»
Жанр: боевик, драма, спорт
Продолжительность: 01:39:38
Перевод: Профессиональный (многоголосый, закадровый)
Продюсер: Джеймс Д. Брубэйкер, Роберт Чартофф, Херб Нанас, Ирвин Уинклер
Композитор: Дэйв Биклер, Билл Конти, Джим Петерик, Фрэнки Салливан
В ролях: Сильвестр Сталлоне, Талия Шайр, Берт Янг, Карл Уэзерс, Бёрджесс Мередит, Тони Бертон, Мистер Ти, Халк Хоган, Йен Фрид, Аль Сильвани, Уолли Тейлор, Джим Хилл
Бюджет: $17 000 000
Сборы в США: $125 049 125
Мировая премьера: 28 мая 1982
Релиз на DVD: 27 августа 2009, «Двадцатый Век Фокс СНГ»
Описание: Одержав сокрушительную победу над Аполло Кридом, Рокки купается в лучах славы. Его окружает роскошь и престиж. Он с легкостью разделывается со всеми претендентами на его чемпионский пояс. Гонорары велики, а тренировки непродолжительны, и в результате Рокки начинает терять свою знаменитую скорость и точность.
Плюс ко всему сказываются старые травмы - все-таки он пропускал слишком много ударов по голове. В итоге, когда на ринге появляется молодой непробиваемый, подобный урагану, боксер по имени Клаббер, Рокки оказывается неспособным выдержать его сокрушительные удары и падает мертвым грузом.
После такого позора от него отворачиваются все, кроме бывшего врага, а теперь товарища по несчастью Аполло Крида.

Раздача группы: Изображение

Изображение User Rating: 7.333 (9 789)
Изображение User Rating: 6.40 (60 874)
MPAA: PG - Рекомендуется присутствие родителей
Качество: BDRip, 720p
Формат: Matroska
Видео: AVC; 1280x696 (16:9); 5676 Kbps; 23,976 fps; 0,266 bit/pixel
Аудио №1: Russian; AC3; 448 Kbps; CBR; 6 ch (Киномания)
Аудио №2: Russian; AC3; 448 Kbps; CBR; 6 ch (Гаврилов)
Аудио №3: English; AC3; 448 Kbps; CBR; 6 ch

Субтитры: Russian, English

MediaInfo
Общее
Уникальный идентификатор : 245047373706200190304721123438907484362 (0xB85A6850B3D55C659259393748C9E8CA)
Полное имя : Z:\WWW\TR-Downloads\Rocky_[Full_Collection]_BDRip_720p[R.G.Daredevil]\Rocky3.1982.BDRip.720p.MVO.Gavilov.eng.sub.mkv
Формат : Matroska
Версия формата : Version 2
Размер файла : 4,98 Гбайт
Продолжительность : 1 ч. 39 м.
Общий поток : 7163 Кбит/сек
Дата кодирования : UTC 2009-12-24 19:46:11
Программа кодирования : mkvmerge v2.9.7 ('Tenderness') built on Jul 1 2009 18:43:35
Библиотека кодирования : libebml v0.7.7 + libmatroska v0.8.1

Видео
Идентификатор : 1
Формат : AVC
Формат/Информация : Advanced Video Codec
Профиль формата : High@L4.1
Параметр CABAC формата : Да
Параметр ReFrames формата : 8 кадров
Идентификатор кодека : V_MPEG4/ISO/AVC
Продолжительность : 1 ч. 39 м.
Битрейт : 5818 Кбит/сек
Ширина : 1280 пикселей
Высота : 696 пикселей
Соотношение сторон : 1,85:1
Частота кадров : 23,976 кадра/сек
Цветовое пространство : YUV
Субдискретизация насыщенности : 4:2:0
Битовая глубина : 8 бит
Тип развёртки : Прогрессивная
Бит/(Пиксели*Кадры) : 0.272
Размер потока : 3,95 Гбайт (79%)
Библиотека кодирования : x264 core 79 r1342 e8501ef
Настройки программы : cabac=1 / ref=8 / deblock=1:-2:-2 / analyse=0x3:0x113 / me=umh / subme=10 / psy=1 / psy_rd=1.2:0.0 / mixed_ref=1 / me_range=32 / chroma_me=1 / trellis=2 / 8x8dct=1 / cqm=0 / deadzone=21,11 / chroma_qp_offset=-2 / threads=6 / nr=0 / decimate=1 / mbaff=0 / constrained_intra=0 / bframes=6 / b_pyramid=0 / b_adapt=2 / b_bias=0 / direct=1 / wpredb=1 / wpredp=2 / keyint=250 / keyint_min=25 / scenecut=40 / rc_lookahead=60 / rc=2pass / mbtree=1 / bitrate=5818 / ratetol=1.0 / qcomp=0.60 / qpmin=10 / qpmax=51 / qpstep=4 / cplxblur=20.0 / qblur=0.5 / vbv_maxrate=50000 / vbv_bufsize=62500 / ip_ratio=1.40 / aq=1:1.00
Default : Да
Forced : Нет

Аудио #1
Идентификатор : 2
Формат : AC-3
Формат/Информация : Audio Coding 3
Расширение режима : CM (complete main)
Параметр Endianness формата : Big
Идентификатор кодека : A_AC3
Продолжительность : 1 ч. 39 м.
Вид битрейта : Постоянный
Битрейт : 448 Кбит/сек
Каналы : 6 каналов
Расположение каналов : Front: L C R, Side: L R, LFE
Частота : 48,0 КГц
Битовая глубина : 16 бит
Метод сжатия : С потерями
Задержка видео : 1 с. 100 мс.
Размер потока : 319 Мбайт (6%)
Заголовок : Kinomania
Язык : Russian
Default : Да
Forced : Нет

Аудио #2
Идентификатор : 3
Формат : AC-3
Формат/Информация : Audio Coding 3
Расширение режима : CM (complete main)
Параметр Endianness формата : Big
Идентификатор кодека : A_AC3
Продолжительность : 1 ч. 39 м.
Вид битрейта : Постоянный
Битрейт : 448 Кбит/сек
Каналы : 6 каналов
Расположение каналов : Front: L C R, Side: L R, LFE
Частота : 48,0 КГц
Битовая глубина : 16 бит
Метод сжатия : С потерями
Задержка видео : 900 мс.
Размер потока : 319 Мбайт (6%)
Заголовок : Gavrilov
Язык : Russian
Default : Нет
Forced : Нет

Аудио #3
Идентификатор : 4
Формат : AC-3
Формат/Информация : Audio Coding 3
Расширение режима : CM (complete main)
Параметр Endianness формата : Big
Идентификатор кодека : A_AC3
Продолжительность : 1 ч. 39 м.
Вид битрейта : Постоянный
Битрейт : 448 Кбит/сек
Каналы : 6 каналов
Расположение каналов : Front: L C R, Side: L R, LFE
Частота : 48,0 КГц
Битовая глубина : 16 бит
Метод сжатия : С потерями
Размер потока : 319 Мбайт (6%)
Язык : English
Default : Нет
Forced : Нет

Текст #1
Идентификатор : 5
Формат : UTF-8
Идентификатор кодека : S_TEXT/UTF8
Идентификатор кодека/Информация : UTF-8 Plain Text
Язык : Russian
Default : Да
Forced : Нет

Текст #2
Идентификатор : 6
Формат : UTF-8
Идентификатор кодека : S_TEXT/UTF8
Идентификатор кодека/Информация : UTF-8 Plain Text
Язык : English
Default : Нет
Forced : Нет
Свернуть
"Знаете ли Вы, что..."
  • Сцена боя Рокки с героем Халка Хогана снималась в течение 10 дней.
  • Oгромная разница в росте между соперниками в фильме не преувеличивалась: рост Сталлоне - 178 см, а рост Хогана - 193 см.
  • Первоначально Сталлоне хотел использовать в картине песню группы «Queen» «One Bites the Dust».
  • Во время тренировок для «Рокки III» Слай снизил содержание подкожного жира до 2,8% (У обычного человека их 18-20%, а у обладателя в те времена титула «Мистер Олимпия» около 4%).
  • Сильвестру Сталлоне не удалось получить разрешение на использование песни группы Queen «Another One Bites the Dust». Он обратился к группе Survivor, по его просьбе они написали песню Eye of the Tiger (Взгляд тигра). Релиз песни состоялся 29 мая 1982 года.
Свернуть
Скриншоты

Изображение
Изображение
Изображение
Изображение
Изображение
Изображение
Свернуть
Свернуть

Рокки IV / Rocky IV
Изображение

Рокки 4
Rocky IV


Год выпуска: 1985
Страна: США
Слоган: «Get ready for the next world war.»
Жанр: боевик, драма, спорт
Продолжительность: 01:31:31
Перевод: Профессиональный (многоголосый, закадровый)
Продюсер: Роберт Чартофф, Ирвин Уинклер, Джеймс Д. Брубэйкер, Артур Чобаниан
В ролях: Сильвестр Сталлоне, Талия Шайр, Берт Янг, Карл Уэзерс, Бриджит Нильсен, Тони Бертон, Майкл Патаки, Дольф Лундгрен, Стью Нэхен, Р.Дж. Адамс, Аль Бандиеро, Доминик Барто
Бюджет: $31 000 000
Сборы в США: $127 873 716
Сборы в мире: $300 473 716
Мировая премьера: 21 ноября 1985
Релиз на DVD: 24 сентября 2009, «Двадцатый Век Фокс СНГ»
Описание: Рокки Бальбоа счастлив в своей семейной жизни, и даже вечное напускное бурчанье Поли Пеннино, брата Адрианы, не способно испортить Рокки хорошее настроение. Но в жизнь Бальбоа все-таки врывается новая трагедия.
Его друг и тренер Аполло Крид соглашается принять участие в показательном поединке с чемпионом мира среди боксеров-любителей Иваном Драго, капитаном Советской Армии. Организаторы матча назвали поединок показательным, но Иван Драго превратил бой боксерский в бой настоящий: русский гигант, словно кувалдой, уложил Крида на ринг смертельным ударом.
Чтобы в честной спортивной схватке отомстить за гибель друга, Рокки Бальбоа возвращается в большой бокс. Для подготовки к поединку, который, по условиям контракта, состоится в Москве, Рокки едет в Россию, где начинает вновь набирать спортивную форму.

Раздача группы: Изображение

Изображение User Rating: 6.977 (9 762)
Изображение User Rating: 6.30 (69 949)
MPAA: PG - Рекомендуется присутствие родителей
Качество: BDRip, 720p
Формат: Matroska
Видео: AVC; 1280x696 (16:9); 6225 Kbps; 23,976 fps; 0,291 bit/pixel
Аудио №1: Russian; AC3; 448 Kbps; CBR; 6 ch (Многоголосый)
Аудио №2: Russian; AC3; 448 Kbps; CBR; 6 ch
Аудио №3: English; AC3; 384 Kbps; CBR; 6 ch

Субтитры: Russian, English

MediaInfo
Общее
Уникальный идентификатор : 206215917352617556160610307435956929772 (0x9B23BDB3BD82B81D9D21C23E8EFE04EC)
Полное имя : Z:\WWW\TR-Downloads\Rocky_[Full_Collection]_BDRip_720p[R.G.Daredevil]\Rocky4.1985.BDRip.720p.MVO.AVO.eng.sub.mkv
Формат : Matroska
Версия формата : Version 2
Размер файла : 4,90 Гбайт
Продолжительность : 1 ч. 31 м.
Общий поток : 7658 Кбит/сек
Дата кодирования : UTC 2009-12-24 20:30:29
Программа кодирования : mkvmerge v2.9.7 ('Tenderness') built on Jul 1 2009 18:43:35
Библиотека кодирования : libebml v0.7.7 + libmatroska v0.8.1

Видео
Идентификатор : 1
Формат : AVC
Формат/Информация : Advanced Video Codec
Профиль формата : High@L4.1
Параметр CABAC формата : Да
Параметр ReFrames формата : 8 кадров
Идентификатор кодека : V_MPEG4/ISO/AVC
Продолжительность : 1 ч. 31 м.
Битрейт : 6377 Кбит/сек
Ширина : 1280 пикселей
Высота : 696 пикселей
Соотношение сторон : 1,85:1
Частота кадров : 23,976 кадра/сек
Цветовое пространство : YUV
Субдискретизация насыщенности : 4:2:0
Битовая глубина : 8 бит
Тип развёртки : Прогрессивная
Бит/(Пиксели*Кадры) : 0.299
Размер потока : 3,98 Гбайт (81%)
Библиотека кодирования : x264 core 79 r1342 e8501ef
Настройки программы : cabac=1 / ref=8 / deblock=1:-3:-3 / analyse=0x3:0x113 / me=umh / subme=10 / psy=1 / psy_rd=1.0:0.0 / mixed_ref=1 / me_range=32 / chroma_me=1 / trellis=2 / 8x8dct=1 / cqm=0 / deadzone=21,11 / chroma_qp_offset=-2 / threads=6 / nr=0 / decimate=1 / mbaff=0 / constrained_intra=0 / bframes=6 / b_pyramid=0 / b_adapt=2 / b_bias=0 / direct=1 / wpredb=1 / wpredp=2 / keyint=250 / keyint_min=25 / scenecut=40 / rc_lookahead=60 / rc=2pass / mbtree=1 / bitrate=6377 / ratetol=1.0 / qcomp=0.60 / qpmin=10 / qpmax=51 / qpstep=4 / cplxblur=20.0 / qblur=0.5 / vbv_maxrate=50000 / vbv_bufsize=62500 / ip_ratio=1.40 / aq=1:1.00
Default : Да
Forced : Нет

Аудио #1
Идентификатор : 2
Формат : AC-3
Формат/Информация : Audio Coding 3
Расширение режима : CM (complete main)
Параметр Endianness формата : Big
Идентификатор кодека : A_AC3
Продолжительность : 1 ч. 31 м.
Вид битрейта : Постоянный
Битрейт : 448 Кбит/сек
Каналы : 6 каналов
Расположение каналов : Front: L C R, Side: L R, LFE
Частота : 48,0 КГц
Битовая глубина : 16 бит
Метод сжатия : С потерями
Размер потока : 293 Мбайт (6%)
Заголовок : MVO
Язык : Russian
Default : Да
Forced : Нет

Аудио #2
Идентификатор : 3
Формат : AC-3
Формат/Информация : Audio Coding 3
Расширение режима : CM (complete main)
Параметр Endianness формата : Big
Идентификатор кодека : A_AC3
Продолжительность : 1 ч. 31 м.
Вид битрейта : Постоянный
Битрейт : 448 Кбит/сек
Каналы : 6 каналов
Расположение каналов : Front: L C R, Side: L R, LFE
Частота : 48,0 КГц
Битовая глубина : 16 бит
Метод сжатия : С потерями
Размер потока : 293 Мбайт (6%)
Заголовок : Gavrilov
Язык : Russian
Default : Нет
Forced : Нет

Аудио #3
Идентификатор : 4
Формат : AC-3
Формат/Информация : Audio Coding 3
Расширение режима : CM (complete main)
Параметр Endianness формата : Big
Идентификатор кодека : A_AC3
Продолжительность : 1 ч. 31 м.
Вид битрейта : Постоянный
Битрейт : 384 Кбит/сек
Каналы : 6 каналов
Расположение каналов : Front: L C R, Side: L R, LFE
Частота : 48,0 КГц
Битовая глубина : 16 бит
Метод сжатия : С потерями
Размер потока : 251 Мбайт (5%)
Язык : English
Default : Нет
Forced : Нет

Текст #1
Идентификатор : 5
Формат : UTF-8
Идентификатор кодека : S_TEXT/UTF8
Идентификатор кодека/Информация : UTF-8 Plain Text
Язык : Russian
Default : Да
Forced : Нет

Текст #2
Идентификатор : 6
Формат : UTF-8
Идентификатор кодека : S_TEXT/UTF8
Идентификатор кодека/Информация : UTF-8 Plain Text
Язык : English
Default : Нет
Forced : Нет
Свернуть
"Знаете ли Вы, что..."
  • Сталлоне отказался имитировать боксерский поединок с Дольфом Лундгреном и решил драться с ним по-настоящему. В итоге мощные удары последнего заставили Сталлоне пожалеть о своем решении.
  • В эпизоде, где Рокки обращается к советской публике, его фразу «Это лучше, чем заставить двадцать миллионов людей убивать друг друга» переводят на русский язык следующим образом: «Это лучше, чем 20 миллионов долларов».
  • Дольф Лундгрен получил роль Ивана Драго обойдя 5000 кандидатов.
  • Кастингом картины заведовала Бриджет Нильсен.
  • Сталлоне и Лундгрен, в период подготовки к съёмкам полгода тренировались вместе.
  • Картина была запрещена к показу в СССР.
  • Съемочный период: 30 апреля - июль 1985.
  • Тренироваться американского боксёра отправляют в маленький городок под названием Красногурбинск, которого на самом деле не существует.
  • Перед боем звучит гимн СССР 1943-1955 годов. Хотя по сюжету действие фильма происходит в 1985 году.
  • Во время исполнения гимна СССР оркестр перестаёт играть ещё до того, как гимн закончился.
  • Погоны капитана Драго не соответствуют погонам младшего офицерского состава и имеют два просвета, как у погонов старшего офицерского состава, при этом звёздочки капитана прикреплены к одному из просветов.
Свернуть
Скриншоты

Изображение
Изображение
Изображение
Изображение
Изображение
Изображение
Свернуть
Свернуть

Рокки V / Rocky V
Изображение

Рокки 5
Rocky V


Год выпуска: 1990
Страна: США
Слоган: «Go for it!»
Жанр: драма, спорт
Продолжительность: 01:44:10
Перевод: Профессиональный (многоголосый, закадровый)
Продюсер: Роберт Чартофф, Майкл С. Глик, Тони Мунафо, Ирвин Уинклер, Сюзанн ДеЛорентис
В ролях: Сильвестр Сталлоне, Талия Шайр, Берт Янг, Сэйдж Сталлоне, Бёрджесс Мередит, Томми Моррисон, Ричард Гант, Тони Бертон, Джимми Гамбина, Делия Шеппард, Майк Джирард Шиэн, Майкл Уильямс
Бюджет: $42 000 000
Сборы в США: $40 946 358
Сборы в мире: $119 946 358
Мировая премьера: 16 ноября 1990
Релиз на DVD: 22 октября 2009, «Двадцатый Век Фокс СНГ»
Описание: После поединка с советским чемпионом Иваном Драго, боксерская карьера Рокки подходит к концу. Здоровье потеряно, да и возраст уже ветеранский. А все заработанные потом и кровью сбережения украдены или потрачены. Так что единственное, что ему остается - это перейти на тренерскую работу.
Но и там не все спокойно, его любимый, подающий надежды ученик, бросает Рокки и уходит к другому тренеру. Но никакие удары судьбы не смогут сломить стоический характер Рокки.
Даже в сложившейся ситуации он не теряет веры в свою счастливую звезду и находит в себе силы для новых достижений.

Раздача группы: Изображение

Изображение User Rating: 6.783 (7 845)
Изображение User Rating: 4.80 (49 135)
MPAA: PG-13 - Детям до 13 лет просмотр не желателен
Качество: BDRip, 720p
Формат: Matroska
Видео: AVC; 1280x696 (16:9); 5221 Kbps; 23,976 fps; 0,244 bit/pixel
Аудио №1: Russian; AC3; 640 Kbps; CBR; 6 ch (Киномания)
Аудио №2: Russian; AC3; 256 Kbps; CBR; 2 ch (Многоголосый)
Аудио №3: Russian; AC3; 448 Kbps; CBR; 6 ch (Гаврилов)
Аудио №4: English; AC3; 448 Kbps; CBR; 6 ch

Субтитры: Russian, English

MediaInfo
Общее
Уникальный идентификатор : 208982051266169051610652736539118964896 (0x9D387AA23039F2EBA84A561BD94290A0)
Полное имя : Z:\WWW\TR-Downloads\Rocky_[Full_Collection]_BDRip_720p[R.G.Daredevil]\Rocky5.1990.BDRip.720p.2xMVO.AVO.eng.sub.mkv
Формат : Matroska
Версия формата : Version 2
Размер файла : 5,21 Гбайт
Продолжительность : 1 ч. 44 м.
Общий поток : 7156 Кбит/сек
Дата кодирования : UTC 2009-12-24 21:37:43
Программа кодирования : mkvmerge v2.9.7 ('Tenderness') built on Jul 1 2009 18:43:35
Библиотека кодирования : libebml v0.7.7 + libmatroska v0.8.1

Видео
Идентификатор : 1
Формат : AVC
Формат/Информация : Advanced Video Codec
Профиль формата : High@L4.1
Параметр CABAC формата : Да
Параметр ReFrames формата : 8 кадров
Идентификатор кодека : V_MPEG4/ISO/AVC
Продолжительность : 1 ч. 44 м.
Битрейт : 5372 Кбит/сек
Ширина : 1280 пикселей
Высота : 696 пикселей
Соотношение сторон : 1,85:1
Частота кадров : 23,976 кадра/сек
Цветовое пространство : YUV
Субдискретизация насыщенности : 4:2:0
Битовая глубина : 8 бит
Тип развёртки : Прогрессивная
Бит/(Пиксели*Кадры) : 0.252
Размер потока : 3,80 Гбайт (73%)
Библиотека кодирования : x264 core 79 r1342 e8501ef
Настройки программы : cabac=1 / ref=8 / deblock=1:-3:-3 / analyse=0x3:0x113 / me=umh / subme=10 / psy=1 / psy_rd=1.0:0.0 / mixed_ref=1 / me_range=32 / chroma_me=1 / trellis=2 / 8x8dct=1 / cqm=0 / deadzone=21,11 / chroma_qp_offset=-2 / threads=3 / nr=0 / decimate=1 / mbaff=0 / constrained_intra=0 / bframes=6 / b_pyramid=2 / b_adapt=2 / b_bias=0 / direct=1 / wpredb=1 / wpredp=2 / keyint=250 / keyint_min=25 / scenecut=40 / rc_lookahead=0 / rc=2pass / mbtree=0 / bitrate=5372 / ratetol=1.0 / qcomp=0.60 / qpmin=10 / qpmax=51 / qpstep=4 / cplxblur=20.0 / qblur=0.5 / vbv_maxrate=50000 / vbv_bufsize=62500 / ip_ratio=1.40 / pb_ratio=1.30 / aq=1:1.00
Default : Да
Forced : Нет

Аудио #1
Идентификатор : 2
Формат : AC-3
Формат/Информация : Audio Coding 3
Расширение режима : CM (complete main)
Параметр Endianness формата : Big
Идентификатор кодека : A_AC3
Продолжительность : 1 ч. 44 м.
Вид битрейта : Постоянный
Битрейт : 640 Кбит/сек
Каналы : 6 каналов
Расположение каналов : Front: L C R, Side: L R, LFE
Частота : 48,0 КГц
Битовая глубина : 16 бит
Метод сжатия : С потерями
Задержка видео : 2 с. 200 мс.
Размер потока : 477 Мбайт (9%)
Заголовок : Kinomania
Язык : Russian
Default : Да
Forced : Нет

Аудио #2
Идентификатор : 3
Формат : AC-3
Формат/Информация : Audio Coding 3
Расширение режима : CM (complete main)
Параметр Endianness формата : Big
Идентификатор кодека : A_AC3
Продолжительность : 1 ч. 44 м.
Вид битрейта : Постоянный
Битрейт : 256 Кбит/сек
Каналы : 2 канала
Расположение каналов : Front: L R
Частота : 48,0 КГц
Битовая глубина : 16 бит
Метод сжатия : С потерями
Задержка видео : 1 с. 950 мс.
Размер потока : 191 Мбайт (4%)
Заголовок : MVO
Язык : Russian
Default : Нет
Forced : Нет

Аудио #3
Идентификатор : 4
Формат : AC-3
Формат/Информация : Audio Coding 3
Расширение режима : CM (complete main)
Параметр Endianness формата : Big
Идентификатор кодека : A_AC3
Продолжительность : 1 ч. 44 м.
Вид битрейта : Постоянный
Битрейт : 448 Кбит/сек
Каналы : 6 каналов
Расположение каналов : Front: L C R, Side: L R, LFE
Частота : 48,0 КГц
Битовая глубина : 16 бит
Метод сжатия : С потерями
Задержка видео : 800 мс.
Размер потока : 334 Мбайт (6%)
Заголовок : Gavrilov
Язык : Russian
Default : Нет
Forced : Нет

Аудио #4
Идентификатор : 5
Формат : AC-3
Формат/Информация : Audio Coding 3
Расширение режима : CM (complete main)
Параметр Endianness формата : Big
Идентификатор кодека : A_AC3
Продолжительность : 1 ч. 44 м.
Вид битрейта : Постоянный
Битрейт : 448 Кбит/сек
Каналы : 6 каналов
Расположение каналов : Front: L C R, Side: L R, LFE
Частота : 48,0 КГц
Битовая глубина : 16 бит
Метод сжатия : С потерями
Размер потока : 334 Мбайт (6%)
Язык : English
Default : Нет
Forced : Нет

Текст #1
Идентификатор : 6
Формат : UTF-8
Идентификатор кодека : S_TEXT/UTF8
Идентификатор кодека/Информация : UTF-8 Plain Text
Язык : Russian
Default : Да
Forced : Нет

Текст #2
Идентификатор : 7
Формат : UTF-8
Идентификатор кодека : S_TEXT/UTF8
Идентификатор кодека/Информация : UTF-8 Plain Text
Язык : English
Default : Нет
Forced : Нет
Свернуть
"Знаете ли Вы, что..."
  • Репортеров в фильме играли настоящие корреспонденты различных филадельфийских газет и телекомпаний.
  • В этой серии впервые произносится настоящее имя Рокки - Роберт.
  • Сильвестр Сталлоне сначала намеревался «убить» своего героя, но потом передумал, сказав, что «это все равно что убить Супермена».
  • Прототипом Томми Ганна является Майк Тайсон.
  • В фильме использовано множество высказываний первого тренера Майка Тайсона Каса Д`Амато.
  • Прототипом Джорджа Вашингтона Дюка является Дон Кинг.
Свернуть
Скриншоты

Изображение
Изображение
Изображение
Изображение
Изображение
Изображение
Свернуть
Свернуть

Рокки Бальбоа / Rocky Balboa
Изображение

Рокки Бальбоа
Rocky Balboa


Год выпуска: 2006
Страна: США
Слоган: «Пока он жив - бой не закончен!»
Жанр: боевик, драма, спорт
Продолжительность: 01:41:47
Перевод: Профессиональный (полное дублирование)
Продюсер: Уильям Чартофф, Кевин Кинг Темплтон, Чарльз Уинклер, Дэвид Уинклер, Роберт Чартофф
В ролях: Сильвестр Сталлоне, Берт Янг, Антонио Тэрвер, Джеральдин Хьюз, Майло Вентимилья, Тони Бертон, А.Дж. Бенза, Джеймс Френсис Келли III, Талия Шайр, Лу ДиБелла, Майк Тайсон, Генри Дж. Сандерс
Бюджет: $24 000 000
Сборы в США: $70 269 899
Сборы в России: $1 155 948
Сборы в мире: $155 593 697
Мировая премьера: 20 декабря 2006
Описание: Рокки отошел от дел, занявшись ресторанным бизнесом и все еще тяжело переживает смерть своей жены Эдриан. Пытаясь развеять образовавшуюся пустоту, Бальбоа решает вернуться на ринг для боев местного значения с боксерами в легком весе. Но когда он соглашается выступить против действующего чемпиона-тяжеловеса Мэйсона Диксона, пресса неожиданно проявляет к возвращению Рокки пристальный интерес.
Раздача группы: Изображение

Изображение User Rating: 7.401 (14 245)
Изображение User Rating: 7.20 (98 740)
MPAA: PG - Рекомендуется присутствие родителей
Качество: BDRip, 720p
Формат: Matroska
Видео: AVC; 1280x696 (16:9); 5560 Kbps; 23,976 fps; 0,260 bit/pixel
Аудио №1: Russian; AC3; 448 Kbps; CBR; 6 ch
Аудио №2: English; AC3; 640 Kbps; CBR; 6 ch

Субтитры: Russian, English

MediaInfo
Общее
Уникальный идентификатор : 203938881994217621357849366456482011610 (0x996D3330F49C8EE79415F934C45219DA)
Полное имя : Z:\WWW\TR-Downloads\Rocky_[Full_Collection]_BDRip_720p[R.G.Daredevil]\Rocky6.2006.BDRip.720p.rus.eng.sub.mkv
Формат : Matroska
Версия формата : Version 2
Размер файла : 4,82 Гбайт
Продолжительность : 1 ч. 41 м.
Общий поток : 6784 Кбит/сек
Дата кодирования : UTC 2009-12-25 16:03:00
Программа кодирования : mkvmerge v2.9.7 ('Tenderness') built on Jul 1 2009 18:43:35
Библиотека кодирования : libebml v0.7.7 + libmatroska v0.8.1

Видео
Идентификатор : 1
Формат : AVC
Формат/Информация : Advanced Video Codec
Профиль формата : High@L4.1
Параметр CABAC формата : Да
Параметр ReFrames формата : 8 кадров
Идентификатор кодека : V_MPEG4/ISO/AVC
Продолжительность : 1 ч. 41 м.
Битрейт : 5695 Кбит/сек
Ширина : 1280 пикселей
Высота : 696 пикселей
Соотношение сторон : 1,85:1
Частота кадров : 23,976 кадра/сек
Цветовое пространство : YUV
Субдискретизация насыщенности : 4:2:0
Битовая глубина : 8 бит
Тип развёртки : Прогрессивная
Бит/(Пиксели*Кадры) : 0.267
Размер потока : 3,95 Гбайт (82%)
Библиотека кодирования : x264 core 80 r1376 3feaec2
Настройки программы : cabac=1 / ref=8 / deblock=1:-3:-3 / analyse=0x3:0x113 / me=umh / subme=10 / psy=1 / psy_rd=1.0:0.0 / mixed_ref=1 / me_range=32 / chroma_me=1 / trellis=2 / 8x8dct=1 / cqm=0 / deadzone=21,11 / fast_pskip=0 / chroma_qp_offset=-2 / threads=3 / sliced_threads=0 / nr=0 / decimate=1 / mbaff=0 / constrained_intra=0 / bframes=6 / b_pyramid=2 / b_adapt=2 / b_bias=0 / direct=1 / wpredb=1 / wpredp=2 / keyint=250 / keyint_min=25 / scenecut=40 / rc_lookahead=0 / rc=2pass / mbtree=0 / bitrate=5695 / ratetol=1.0 / qcomp=0.60 / qpmin=10 / qpmax=51 / qpstep=4 / cplxblur=20.0 / qblur=0.5 / vbv_maxrate=50000 / vbv_bufsize=62500 / ip_ratio=1.40 / pb_ratio=1.30 / aq=1:1.00
Default : Да
Forced : Нет

Аудио #1
Идентификатор : 2
Формат : AC-3
Формат/Информация : Audio Coding 3
Расширение режима : CM (complete main)
Параметр Endianness формата : Big
Идентификатор кодека : A_AC3
Продолжительность : 1 ч. 41 м.
Вид битрейта : Постоянный
Битрейт : 448 Кбит/сек
Каналы : 6 каналов
Расположение каналов : Front: L C R, Side: L R, LFE
Частота : 48,0 КГц
Битовая глубина : 16 бит
Метод сжатия : С потерями
Размер потока : 326 Мбайт (7%)
Язык : Russian
Default : Да
Forced : Нет

Аудио #2
Идентификатор : 3
Формат : AC-3
Формат/Информация : Audio Coding 3
Расширение режима : CM (complete main)
Параметр Endianness формата : Big
Идентификатор кодека : A_AC3
Продолжительность : 1 ч. 41 м.
Вид битрейта : Постоянный
Битрейт : 640 Кбит/сек
Каналы : 6 каналов
Расположение каналов : Front: L C R, Side: L R, LFE
Частота : 48,0 КГц
Битовая глубина : 16 бит
Метод сжатия : С потерями
Размер потока : 466 Мбайт (9%)
Язык : English
Default : Нет
Forced : Нет

Текст #1
Идентификатор : 4
Формат : UTF-8
Идентификатор кодека : S_TEXT/UTF8
Идентификатор кодека/Информация : UTF-8 Plain Text
Язык : Russian
Default : Да
Forced : Нет

Текст #2
Идентификатор : 5
Формат : UTF-8
Идентификатор кодека : S_TEXT/UTF8
Идентификатор кодека/Информация : UTF-8 Plain Text
Язык : English
Default : Нет
Forced : Нет
Свернуть
"Знаете ли Вы, что..."
  • В первых трех вариантах сценария жена Рокки была жива.
  • В финальных титрах идет видео, в котором Сталлоне снимают со спины, он просто стоит. Сам Слай этого не знал.
  • Прототипом Рокки Бальбоа в этом фильме стал Джордж Формен.
Свернуть
Скриншоты

Изображение
Изображение
Изображение
Изображение
Изображение
Изображение
Свернуть
Свернуть
 Krazy и iTon нравится это.
Не в сети
Профиль  
 Добавлено: 2012-12-07 21:18 (спустя 10 часов)
Руководитель релиз-группы
Аватара пользователя
Стаж: 7 лет 4 месяца
Возраст: 31
Сообщений: 3407
Спасибок: 46729
Лайков: 5
yyuuii1223
Отличный релиз :co_ol:
Не в сети
Профиль  
 Добавлено: 2013-01-11 15:29 (спустя 1 месяц 3 дня)
Модератор
Аватара пользователя
Стаж: 6 лет 10 месяцев
Возраст: 33
Сообщений: 5908
Спасибок: 61259
Лайков: 3540
:co_ol:
_________________
ИзображениеИзображение Изображение
Изображение
Не в сети
Профиль  
 Добавлено: 2013-04-04 17:15 (спустя 2 месяца 24 дня)
Аватара пользователя
Стаж: 6 лет 11 месяцев
Возраст: 27
Сообщений: 20
Перевод не оригинал(!
Не в сети
Профиль  
 Добавлено: 2014-06-25 19:49 (спустя 1 год 2 месяца)
Стаж: 7 лет 2 месяца
Сообщений: 4
Давно хотел в коллекцию, спасибо
Не в сети
Профиль  
 Добавлено: 2014-07-24 01:31 (спустя 28 дней)
Аватара пользователя
Стаж: 8 лет 11 месяцев
Возраст: 25
Сообщений: 146
Спасибок: 85
Шедевры...Аж молодость вспомнил)
Не в сети
Профиль  
 Добавлено: 2014-07-24 07:51 (спустя 6 часов)
Top-seeder
Аватара пользователя
Стаж: 7 лет 7 месяцев
Сообщений: 319
Лайков: 32
Фильмы на все времена. :) :co_ol:
Не в сети
Профиль  
Начать новую темуОтветить на тему  [ Сообщений: 7 ] 
Вы не можете начинать темы
Вы не можете отвечать на сообщения
Вы не можете редактировать свои сообщения
Вы не можете удалять свои сообщения
cron