Правила форума

  • В этом разделе создание новых тем Запрещено.
  • Для создания новых тем пользуйтесь Корневым разделом DVD и HD фильмы.
Начать новую темуОтветить на тему  [ Сообщений: 2 ] 
Торрент файл
Размер: 11.79 GB • Зарегистрирован: 3 года 3 месяца • Статус: Проверено
Скачан: 80 раз • Желающих скачать: 0 • Поблагодарили: 29 раз
 Раздают: 0  |  0 KB/s  ]   Качают: 0  |  0 KB/s  ] 
 Полного источника не было 11 месяцев 
Сообщения
 Добавлено: 2013-08-04 12:30
Top-releaser
Аватара пользователя
Стаж: 8 лет 7 месяцев
Сообщений: 1286
Спасибок: 3420
Лайков: 7
Изображение
Роммель
Rommel

Год выпуска: 2012
Страна: Германия, Франция, Австрия
Жанр: боевик, драма, военный, биография, история
Продолжительность: 01:58:38
Перевод: Авторский (Сербин Юрий)


Режиссер: Николаус Штейн фон Каменски
Сценарий: Николаус Штейн фон Каменски
Продюсер: Нико Хофманн, Ариане Крампе, Др. Юрген Шустер, Саша Швингел, Thomas Buchwalder
Оператор: Arthur W. Ahrweiler
Композитор: Джеки Энгелкен, Ульрик Спис

В ролях: Ульрих Тукур, Тим Бергманн, Рольф Канис, Артур Клемт, Томас Лимпинзель, Патрик Мёллекен, Роберт Шупп, Питер Вульф, Хабертус Хартманн, Клаус Й. Берендт, Михаэль Кранц, Ганс Кремер и др.


Описание: В январе 1944 Роммель был назначен командующим группой армий «В» в Северной Франции. Он попытался сделать «Атлантический вал» серьёзным препятствием для противника. Однако из-за стратегических разногласий с командующим всей войсковой группировкой во Франции - фельдмаршалом Рундштедтом, единый план обороны западной границы рейха не был выработан, что и привело к неоперативности и несогласованности действий немецких войск во время высадки союзников в Нормандии 6 июня 1944 года.


Релиз от: Изображение Релиз группа: Изображение




Мировая премьера: 1 ноября 2012



Качество: BDRip
Контейнер: MKV
Видео: AVC; 1920x1080 (16:9); 11200 kbps; 25 fps; 0,216 bit/pixel
Аудио №1: русский; DTS; 1510 kbps; CBR; 6 channels; 24 bit
Аудио №2: немецкий; DTS; 1510 kbps; CBR; 6 channels; 24 bit

"Media Info"
General
Unique ID : 182652839224277175073024687987531752752 (0x8969A8417767461F94EC390FE6F0A530)
Complete name : D:\Видео\Rommel.2012.1080p.CMEGRoup.mkv
Format : Matroska
Format version : Version 4 / Version 2
File size : 11.8 GiB
Duration : 1h 58mn
Overall bit rate : 14.2 Mbps
Movie name : CMEGRoup
Encoded date : UTC 2013-08-03 10:43:27
Writing application : mkvmerge v6.1.0 ('Old Devil') built on Mar 2 2013 14:32:37
Writing library : libebml v1.3.0 + libmatroska v1.4.0

Video
ID : 1
Format : AVC
Format/Info : Advanced Video Codec
Format profile : High@L4.1
Format settings, CABAC : Yes
Format settings, ReFrames : 4 frames
Codec ID : V_MPEG4/ISO/AVC
Duration : 1h 58mn
Bit rate : 11.2 Mbps
Width : 1 920 pixels
Height : 1 080 pixels
Display aspect ratio : 16:9
Frame rate : 25.000 fps
Color space : YUV
Chroma subsampling : 4:2:0
Bit depth : 8 bits
Scan type : Progressive
Bits/(Pixel*Frame) : 0.216
Stream size : 9.05 GiB (77%)
Writing library : x264 core 135 r2345 f0c1c53
Encoding settings : cabac=1 / ref=4 / deblock=1:-3:-3 / analyse=0x3:0x113 / me=umh / subme=11 / psy=1 / psy_rd=1.00:0.00 / mixed_ref=1 / me_range=32 / chroma_me=1 / trellis=2 / 8x8dct=1 / cqm=0 / deadzone=21,11 / fast_pskip=1 / chroma_qp_offset=-2 / threads=6 / lookahead_threads=1 / sliced_threads=0 / nr=0 / decimate=1 / interlaced=0 / bluray_compat=0 / constrained_intra=0 / bframes=5 / b_pyramid=2 / b_adapt=2 / b_bias=0 / direct=2 / weightb=0 / open_gop=0 / weightp=2 / keyint=250 / keyint_min=25 / scenecut=40 / intra_refresh=0 / rc_lookahead=40 / rc=2pass / mbtree=1 / bitrate=11200 / ratetol=1.0 / qcomp=0.60 / qpmin=0 / qpmax=69 / qpstep=4 / cplxblur=20.0 / qblur=0.5 / vbv_maxrate=62500 / vbv_bufsize=78125 / nal_hrd=none / ip_ratio=1.40 / aq=1:1.00 / zones=177060,177959,q=40
Language : English
Default : Yes
Forced : No

Audio #1
ID : 2
Format : DTS
Format/Info : Digital Theater Systems
Codec ID : A_DTS
Duration : 1h 58mn
Bit rate mode : Constant
Bit rate : 1 510 Kbps
Channel(s) : 6 channels
Channel positions : Front: L C R, Side: L R, LFE
Sampling rate : 48.0 KHz
Bit depth : 24 bits
Compression mode : Lossy
Stream size : 1.25 GiB (11%)
Language : Russian
Default : Yes
Forced : No

Audio #2
ID : 3
Format : DTS
Format/Info : Digital Theater Systems
Codec ID : A_DTS
Duration : 1h 58mn
Bit rate mode : Constant
Bit rate : 1 510 Kbps
Channel(s) : 6 channels
Channel positions : Front: L C R, Side: L R, LFE
Sampling rate : 48.0 KHz
Bit depth : 24 bits
Compression mode : Lossy
Stream size : 1.25 GiB (11%)
Language : German
Default : No
Forced : No

Menu
00:00:00.000 : :Chapter 01
00:05:00.000 : :Chapter 02
00:10:00.000 : :Chapter 03
00:15:00.000 : :Chapter 04
00:20:00.000 : :Chapter 05
00:25:00.000 : :Chapter 06
00:30:00.000 : :Chapter 07
00:35:00.000 : :Chapter 08
00:40:00.000 : :Chapter 09
00:45:00.000 : :Chapter 10
00:50:00.000 : :Chapter 11
00:55:00.000 : :Chapter 12
01:00:00.000 : :Chapter 13
01:05:00.000 : :Chapter 14
01:10:00.000 : :Chapter 15
01:15:00.000 : :Chapter 16
01:20:00.000 : :Chapter 17
01:25:00.000 : :Chapter 18
01:30:00.000 : :Chapter 19
01:35:00.000 : :Chapter 20
01:40:00.000 : :Chapter 21
01:45:00.000 : :Chapter 22
01:50:00.000 : :Chapter 23
01:55:00.000 : :Chapter 24


Свернуть


Скриншоты


Изображение


Изображение


Изображение


Изображение


Изображение


Изображение


Изображение


Свернуть


Не в сети
Профиль  
 Добавлено: 2013-08-09 07:40 (спустя 4 дня)
Аватара пользователя
Стаж: 8 лет
Сообщений: 140
Спасибок: 51
посмотрим :)
_________________
Изображение 6 мB/s Изображение 600 kB/s
Изображение
Не в сети
Профиль  
Начать новую темуОтветить на тему  [ Сообщений: 2 ] 
Вы не можете начинать темы
Вы не можете отвечать на сообщения
Вы не можете редактировать свои сообщения
Вы не можете удалять свои сообщения