Правила форума

  • В этом разделе создание новых тем Запрещено.
  • Для создания новых тем пользуйтесь Корневым разделом DVD и HD фильмы.
Начать новую темуОтветить на тему  [ Сообщений: 2 ] 
Торрент файл
Размер: 15.77 GB • Зарегистрирован: 3 года 10 месяцев • Статус: Проверено
Скачан: 151 раз • Желающих скачать: 0 • Поблагодарили: 38 раз
 Раздают: 0  |  0 KB/s  ]   Качают: 0  |  0 KB/s  ] 
 Полного источника не было 2 года 8 месяцев 
Сообщения
 Добавлено: 2013-01-24 02:57
Аватара пользователя
Стаж: 9 лет 1 месяц
Сообщений: 7922
Спасибок: 122118
Лайков: 1191
Руби Спаркс / Ruby Sparks

«Невероятная история любви, ставшая реальностью»

Изображение


Год выпуска: 2012
Страна: Изображение США
Жанр: фэнтези, мелодрама, комедия
Продолжительность: 01:44:06
Субтитры: Русские, английские
Перевод: Профессиональный (полное дублирование)[лицензия]


Режиссёр: Джонатан Дэйтон, Валери Фэрис
Сценарист: Зои Казан
Продюсер: Альберт Бергер, Рон Йеркса, Пол Дано
Оператор: Мэттью Либатик
Композитор: Ник Урата

В ролях: Пол Дано, Зои Казан, Антонио Бандерас, Аннетт Бенинг, Стив Куган, Эллиот Гулд, Крис Мессина, Аасиф Мандви, Тони Тракс, Дебора Энн Уолл

Описание: Молодой, но уже успешный писатель переживает творческие и душевные муки: новый роман никак не выходит, музы все нет, да и вообще с девушками как-то не клеится. И вот, призвав на помощь остатки своей фантазии, Кэлвин придумывает себе девушку по имени Руби Спаркс — умницу, красавицу, спортсменку, короче говоря, идеал, а спустя неделю… обнаруживает этот идеал из плоти и крови на своем собственном диване. Уходить Руби явно не собирается, но вот кем она окажется — Галатеей или Белочкой?..

Изображение Изображение

Качество: BDRip (1080p)
Формат: Matroska
Видео: MPEG-4 AVC, 19.8 Мбит/с, 1920x1040, 23.976 кадр/с
Аудио №1: Русский (AC3, 6 ch, 384 Кбит/с)
Аудио №2: Английский (DTS, 6 ch, 1510 Кбит/с)

MediaInfo
Общее
Уникальный идентификатор : 194754347934751436882730537392479165781 (0x928452B352112C80A57F0543ABE45D55)
Полное имя : H:\Rubi Sparks.nntt.org.mkv
Формат : Matroska
Версия формата : Version 2
Размер файла : 15,8 Гбайт
Продолжительность : 1 ч. 44 м.
Общий поток : 21,7 Мбит/сек
Название фильма : =От- Kinofan.tv=
Дата кодирования : UTC 2013-01-24 00:12:25
Программа кодирования : mkvmerge v5.7.0 ('The Whirlwind') built on Jul 29 2012 15:12:35
Библиотека кодирования : libebml v1.2.3 + libmatroska v1.3.0

Видео
Идентификатор : 1
Формат : AVC
Формат/Информация : Advanced Video Codec
Профиль формата : High@L4.1
Параметр CABAC формата : Да
Параметр ReFrames формата : 4 кадра
Идентификатор кодека : V_MPEG4/ISO/AVC
Продолжительность : 1 ч. 44 м.
Битрейт : 19,8 Мбит/сек
Ширина : 1920 пикселей
Высота : 1040 пикселей
Соотношение сторон : 1,85:1
Режим частоты кадров : Постоянный
Частота кадров : 23,976 кадра/сек
Цветовое пространство : YUV
Субдискретизация насыщенности : 4:2:0
Битовая глубина : 8 бит
Тип развёртки : Прогрессивная
Бит/(Пиксели*Кадры) : 0.414
Размер потока : 14,1 Гбайт (89%)
Библиотека кодирования : x264 core 128 r2216+688+33 06dac27 tMod+MixAQ [8-bit@4:2:0 X86_64]
Настройки программы : cabac=1 / ref=4 / deblock=1:-3:-3 / analyse=0x3:0x113 / me=umh / subme=11 / psy=1 / fade_compensate=0.00 / psy_rd=1.10:0.05 / mixed_ref=1 / me_range=48 / chroma_me=1 / trellis=2 / 8x8dct=1 / cqm=0 / deadzone=21,11 / fast_pskip=0 / chroma_qp_offset=-3 / threads=18 / lookahead_threads=3 / sliced_threads=0 / nr=0 / decimate=0 / interlaced=0 / bluray_compat=0 / constrained_intra=0 / fgo=0 / bframes=8 / b_pyramid=2 / b_adapt=2 / b_bias=0 / direct=3 / weightb=1 / open_gop=0 / weightp=2 / keyint=240 / keyint_min=24 / scenecut=40 / intra_refresh=0 / rc_lookahead=240 / rc=2pass / mbtree=1 / bitrate=19800 / ratetol=1.0 / qcomp=0.70 / qpmin=0 / qpmax=69 / qpstep=4 / cplxblur=20.0 / qblur=0.5 / ip_ratio=1.10 / aq=4 / aq-strength=0.85 / aq-sensitivity=10.00 / aq-ifactor=1.00 / aq-pfactor=1.00 / aq-bfactor=1.00 / aq2=0
Язык : English
Default : Да
Forced : Да

Аудио #1
Идентификатор : 2
Формат : AC-3
Формат/Информация : Audio Coding 3
Расширение режима : CM (complete main)
Параметр Endianness формата : Big
Идентификатор кодека : A_AC3
Продолжительность : 1 ч. 44 м.
Вид битрейта : Постоянный
Битрейт : 384 Кбит/сек
Каналы : 6 каналов
Расположение каналов : Front: L C R, Side: L R, LFE
Частота : 48,0 КГц
Битовая глубина : 16 бит
Метод сжатия : С потерями
Размер потока : 286 Мбайт (2%)
Default : Да
Forced : Да

Аудио #2
Идентификатор : 3
Формат : DTS
Формат/Информация : Digital Theater Systems
Режим : 16
Параметр Endianness формата : Big
Идентификатор кодека : A_DTS
Продолжительность : 1 ч. 44 м.
Вид битрейта : Постоянный
Битрейт : 1509 Кбит/сек
Каналы : 6 каналов
Расположение каналов : Front: L C R, Side: L R, LFE
Частота : 48,0 КГц
Битовая глубина : 24 бит
Метод сжатия : С потерями
Размер потока : 1,10 Гбайт (7%)
Язык : English
Default : Нет
Forced : Нет

Текст #1
Идентификатор : 4
Формат : UTF-8
Идентификатор кодека : S_TEXT/UTF8
Идентификатор кодека/Информация : UTF-8 Plain Text
Язык : Russian
Default : Нет
Forced : Нет

Текст #2
Идентификатор : 5
Формат : UTF-8
Идентификатор кодека : S_TEXT/UTF8
Идентификатор кодека/Информация : UTF-8 Plain Text
Язык : English
Default : Нет
Forced : Нет
Свернуть
Знаете ли вы, что...
Зои Казан, исполнившая роль Руби, так же написала сценарий к фильму. Дедушка Зои — Элиа Казан, режиссер фильма «В порту» (1954). Ее мать написала сценарий для фильма «Загадочная история Бенджамина Баттона» (2008). А ее отец — сценарист фильма «Изнанка судьбы» (1990).

Всякий раз, когда Пол нес Зои на плече, ее подменял дублер.
Свернуть
Скриншоты
Изображение
Изображение
Изображение
Изображение
Изображение
Свернуть
В сети
Профиль  
 Добавлено: 2013-01-27 14:02 (спустя 3 дня)
Аватара пользователя
Стаж: 8 лет 3 месяца
Сообщений: 231
Спасибок: 29
внезапно хороший фильм
Не в сети
Профиль  
Начать новую темуОтветить на тему  [ Сообщений: 2 ] 
Вы не можете начинать темы
Вы не можете отвечать на сообщения
Вы не можете редактировать свои сообщения
Вы не можете удалять свои сообщения