Правила форума

  • В этом разделе создание новых тем Запрещено.
  • Для создания новых тем пользуйтесь Корневым разделом DVD и HD фильмы.
Начать новую темуОтветить на тему  [ Сообщений: 5 ] 
Торрент файл
Размер: 9 GB • Зарегистрирован: 2 года 4 месяца • Статус: Проверено
Скачан: 171 раз • Желающих скачать: 0 • Поблагодарили: 64 раза
 Раздают: 0  |  0 KB/s  ]   Качают: 0  |  0 KB/s  ] 
 Полного источника не было 6 часов 
Сообщения
 Добавлено: 2014-07-21 23:55
DVD Release Group
Аватара пользователя
Стаж: 7 лет 1 месяц
Сообщений: 3543
Спасибок: 246751
Лайков: 1016
Саботаж

Sabotage


Изображение


Год выпуска: 2014
Страна: США
Жанр: Боевик, триллер, драма, криминал
Продолжительность: 01:49:41
Перевод: Профессиональный (полное дублирование)
Субтитры: Английские
Режиссер: Дэвид Эйр
В ролях: Арнольд Шварценеггер, Терренс Ховард, Сэм Уортингтон, Макс Мартини, Оливия Уильямс, Мартин Донован, Мирей Инос, Кевин Вэнс, Джо Манганьелло, Джош Холлоуэй
Описание: История начинается с операции элитного подразделения из управления по борьбе с наркотиками, нагрянувшего на явочную квартиру наркокартеля. Команда решает скрыть от начальства, что в результате налёта они обогатились на миллионы долларов, но вскоре хранить тайну становится всё сложнее: кто-то по одному убирает всех участвовавших в операции.
Изображение
Sample:
http://multi-up.com/987951
Качество: BDRip 1080p
Формат: MKV
Видео кодек: H.264
Аудио кодек: AC3, DTS
Видео: 1920x1040 23.98fps 9860kbps
Аудио:
Аудио Rus: AC3 48kHz 6ch 384kbps
Аудио Eng: DTS 48kHz 6ch 1510kbps
"MediaInfo"
Формат : Matroska
Версия формата : Version 4 / Version 2
Размер файла : 9,00 Гбайт
Продолжительность : 1 ч. 49 м.
Общий поток : 11,8 Мбит/сек
Название фильма : Sabotage.2014.720p.BluRay.DD5.1.x264-LolHD
Дата кодирования : UTC 2014-07-21 19:08:25
Программа кодирования : mkvmerge v7.0.0 ('Where We Going') 64bit built on Jun 9 2014 15:16:27
Библиотека кодирования : libebml v1.3.0 + libmatroska v1.4.1

Видео
Идентификатор : 4
Формат : AVC
Формат/Информация : Advanced Video Codec
Профиль формата : High@L4.1
Параметр CABAC формата : Да
Параметр ReFrames формата : 4 кадра
Идентификатор кодека : V_MPEG4/ISO/AVC
Продолжительность : 1 ч. 49 м.
Битрейт : 9860 Кбит/сек
Ширина : 1920 пикселей
Высота : 1040 пикселей
Соотношение сторон : 1,85:1
Режим частоты кадров : Постоянный
Частота кадров : 23,976 кадра/сек
Цветовое пространство : YUV
Субдискретизация насыщенности : 4:2:0
Битовая глубина : 8 бит
Тип развёртки : Прогрессивная
Бит/(Пиксели*Кадры) : 0.206
Размер потока : 7,37 Гбайт (82%)
Библиотека кодирования : x264 core 138 r2356 a1d3d17
Настройки программы : cabac=1 / ref=4 / deblock=1:-3:-3 / analyse=0x3:0x113 / me=umh / subme=10 / psy=1 / psy_rd=1.00:0.05 / mixed_ref=1 / me_range=32 / chroma_me=1 / trellis=2 / 8x8dct=1 / cqm=0 / deadzone=21,11 / fast_pskip=0 / chroma_qp_offset=-2 / threads=18 / lookahead_threads=1 / sliced_threads=0 / nr=0 / decimate=1 / interlaced=0 / bluray_compat=0 / constrained_intra=0 / bframes=4 / b_pyramid=2 / b_adapt=2 / b_bias=0 / direct=3 / weightb=1 / open_gop=0 / weightp=2 / keyint=250 / keyint_min=23 / scenecut=40 / intra_refresh=0 / rc=2pass / mbtree=0 / bitrate=9860 / ratetol=1.0 / qcomp=0.70 / qpmin=0 / qpmax=69 / qpstep=4 / cplxblur=20.0 / qblur=0.5 / ip_ratio=1.40 / pb_ratio=1.30 / aq=2:1.00
Язык : English
Default : Да
Forced : Нет

Аудио #1
Идентификатор : 1
Формат : AC-3
Формат/Информация : Audio Coding 3
Расширение режима : CM (complete main)
Параметр Endianness формата : Big
Идентификатор кодека : A_AC3
Продолжительность : 1 ч. 49 м.
Вид битрейта : Постоянный
Битрейт : 384 Кбит/сек
Каналы : 6 каналов
Расположение каналов : Front: L C R, Side: L R, LFE
Частота : 48,0 КГц
Битовая глубина : 16 бит
Метод сжатия : С потерями
Размер потока : 301 Мбайт (3%)
Заголовок : DUB iTunes
Язык : Russian
Default : Да
Forced : Нет

Аудио #2
Идентификатор : 2
Формат : DTS
Формат/Информация : Digital Theater Systems
Режим : 16
Параметр Endianness формата : Big
Идентификатор кодека : A_DTS
Продолжительность : 1 ч. 49 м.
Вид битрейта : Постоянный
Битрейт : 1509 Кбит/сек
Каналы : 6 каналов
Расположение каналов : Front: L C R, Side: L R, LFE
Частота : 48,0 КГц
Битовая глубина : 24 бит
Метод сжатия : С потерями
Размер потока : 1,16 Гбайт (13%)
Заголовок : dts-core 1509k eng
Язык : English
Default : Нет
Forced : Нет

Текст
Идентификатор : 3
Формат : UTF-8
Идентификатор кодека : S_TEXT/UTF8
Идентификатор кодека/Информация : UTF-8 Plain Text
Язык : English
Default : Да
Forced : Нет

Меню
00:00:00.000 : en:Chapter 01
00:09:58.556 : en:Chapter 02
00:13:13.125 : en:Chapter 03
00:19:44.307 : en:Chapter 04
00:25:16.932 : en:Chapter 05
00:30:09.598 : en:Chapter 06
00:34:21.976 : en:Chapter 07
00:37:33.376 : en:Chapter 08
00:43:00.744 : en:Chapter 09
00:48:32.117 : en:Chapter 10
00:53:13.106 : en:Chapter 11
00:57:38.621 : en:Chapter 12
01:03:43.777 : en:Chapter 13
01:07:59.449 : en:Chapter 14
01:14:38.556 : en:Chapter 15
01:18:42.551 : en:Chapter 16
01:22:41.164 : en:Chapter 17
01:28:49.490 : en:Chapter 18
01:35:39.317 : en:Chapter 19
01:42:47.828 : en:Chapter 20
Свернуть

"Скриншоты"
Изображение
Изображение
Изображение
Изображение
Свернуть
Не в сети
Профиль  
 Добавлено: 2014-07-22 15:29 (спустя 15 часов)
Аватара пользователя
Стаж: 8 лет 11 месяцев
Сообщений: 515
Спасибок: 39
Лайков: 49
Напишите хоть кто нибудь, хоть что нибудь. Как фильм то? А то получается что Шварц в трэшаках не снимается.
Не в сети
Профиль  
 Добавлено: 2014-07-22 20:35 (спустя 5 часов)
Аватара пользователя
Стаж: 9 лет 1 месяц
Сообщений: 2152
Спасибок: 778
Лайков: 14
Микки
«Не снимается» нужно заменить на «раньше не снимался».
_________________
PSN
Изображение
Свернуть
Изображение
Не в сети
Профиль  
 Добавлено: 2014-07-23 12:26 (спустя 15 часов)
Аватара пользователя
Стаж: 8 лет 10 месяцев
Возраст: 27
Сообщений: 721
Спасибок: 5528
Лайков: 1
очень слабый фильм :(
_________________
Изображение
Не в сети
Профиль  
 Добавлено: 2014-07-26 09:57 (спустя 2 дня 21 час)
Аватара пользователя
Стаж: 7 лет 5 месяцев
Сообщений: 12
Фильм нормальный, можно посмотреть. Кто считает что фильм дерьмо и полный шлак, у всех взгляды разные. Проблема фильма в одном, что сценарий написан каким то первоклашкой, и постановка вообще никакая. И Арни не смотря на свои года, всё снимается, это радует безусловно.
Не в сети
Профиль  
Начать новую темуОтветить на тему  [ Сообщений: 5 ] 
Вы не можете начинать темы
Вы не можете отвечать на сообщения
Вы не можете редактировать свои сообщения
Вы не можете удалять свои сообщения