Правила форума

  • В этом разделе создание новых тем Запрещено.
  • Для создания новых тем пользуйтесь Корневым разделом DVD и HD фильмы.
Начать новую темуОтветить на тему  [ Сообщений: 3 ] 
Торрент файл
Размер: 11.76 GB • Зарегистрирован: 1 год 8 месяцев • Статус: Проверено
Скачан: 156 раз • Желающих скачать: 0 • Поблагодарили: 23 раза
 Раздают: 0  |  0 KB/s  ]   Качают: 0  |  0 KB/s  ] 
 Полного источника не было 1 день 8 часов 
Сообщения
 Добавлено: 2015-03-28 15:58
Модератор
Аватара пользователя
Стаж: 5 лет 8 месяцев
Сообщений: 6281
Спасибок: 17338
Лайков: 1633
Изображение
Самба
Samba

Год выпуска: 2014
Страна: Франция / Quad Productions, Ten Films, Gaumont
Жанр: драма, комедия
Продолжительность: 01:58:51
Перевод:
Профессиональный (дубляж) Лицензия
Режиссёр: Оливье Накаш, Эрик Толедано
В ролях: Омар Си, Шарлотта Генсбур, Тахар Рахим, Изиа Ижлен, Исака Савадого, Элен Венсан, Янгар Фолл, Кристиана Милле, Жаклин Жеаннеф, Лия Кебеде
Описание: Самба — сенегалец, живущий во Франции десять лет, но неудачи все еще преследуют его — он не может устроиться на хорошее место работы. Элис — руководитель высшего звена, буквально «сгорела» на работе. Самба всеми силами пытается получить документы, чтобы трудоустроиться, а Алиса ищет спасения от пустоты собственной жизни. Каждый из них ищет выход из сложившегося тупика, пока в один прекрасный день их судьбы не пересекаются. Между смехом и слезами их история прокладывает себе дорогу к счастью.
Изображение | Изображение
Качество: BDRip 1080p
Формат: MKV
Видео: AVC, 12.8 Mb/s, 1920x1038
Аудио #1: AC3, 448 kb/s, 6 каналов, 48 KHz [Русский]
Аудио #2: AC3, 640 kb/s, 6 каналов, 48 KHz [Французский]
Субтитры: Французские

Скриншоты
ИзображениеИзображениеИзображение
Свернуть
MediaInfo
general
Unique ID : 175251867780091485906003232920355029822 (0x83D84830F0564A28AA799D1FF561433E)
Complete name : D:ReliziSAMBA_LICSamba.2014.D.BDRip.1080p.mkv
Format : Matroska
Format version : Version 4 / Version 2
File size : 11.8 GiB
Duration : 1h 58mn
Overall bit rate : 14.2 Mbps
Encoded date : UTC 2015-03-28 08:16:14
Writing application : mkvmerge v7.7.0 ('Six Voices') 32bit built on Feb 28 2015 23:23:00
Writing library : libebml v1.3.1 + libmatroska v1.4.2
_STATISTICS_WRITING_APP : mkvmerge v7.7.0 ('Six Voices') 32bit built on Feb 28 2015 23:23:00
_STATISTICS_WRITING_DATE_UTC : 2015-03-28 08:16:14
_STATISTICS_TAGS : BPS DURATION NUMBER_OF_FRAMES NUMBER_OF_BYTES
DURATION : 01:58:51.104000000
NUMBER_OF_FRAMES : 222847
NUMBER_OF_BYTES : 399341824

Video
ID : 1
Format : AVC
Format/Info : Advanced Video Codec
Format profile : High@L4.1
Format settings, CABAC : Yes
Format settings, ReFrames : 4 frames
Codec ID : V_MPEG4/ISO/AVC
Duration : 1h 58mn
Bit rate : 12.8 Mbps
Width : 1 920 pixels
Height : 1 038 pixels
Display aspect ratio : 1.85:1
Frame rate mode : Constant
Frame rate : 24.000 fps
Color space : YUV
Chroma subsampling : 4:2:0
Bit depth : 8 bits
Scan type : Progressive
Bits/(Pixel*Frame) : 0.267
Stream size : 10.6 GiB (90%)
Title : Samba.2014.D.BDRip.1080p.ELEKTRI4KA.uniongang.tv [3imeMachi9e]
Writing library : x264 core 146 r2538 121396c
Encoding settings : cabac=1 / ref=4 / deblock=1:-3:-3 / analyse=0x3:0x133 / me=umh / subme=10 / psy=1 / psy_rd=1.05:0.00 / mixed_ref=1 / me_range=16 / chroma_me=1 / trellis=2 / 8x8dct=1 / cqm=0 / deadzone=21,11 / fast_pskip=0 / chroma_qp_offset=-2 / threads=12 / lookahead_threads=2 / sliced_threads=0 / nr=0 / decimate=0 / interlaced=0 / bluray_compat=0 / constrained_intra=0 / bframes=9 / b_pyramid=2 / b_adapt=2 / b_bias=0 / direct=3 / weightb=1 / open_gop=0 / weightp=2 / keyint=250 / keyint_min=24 / scenecut=40 / intra_refresh=0 / rc=crf / mbtree=0 / crf=17.0 / qcomp=0.60 / qpmin=0 / qpmax=69 / qpstep=4 / ip_ratio=1.40 / pb_ratio=1.30 / aq=3:0.70 / zones=783,1211,crf=11/11627,11691,crf=11/32341,32413,crf=11/39263,39470,crf=13/39671,39789,crf=13/40446,40824,crf=11/84988,85122,crf=13/85296,85415,crf=13/85685,85859,crf=13/86332,86432,crf=13/88016,88103,crf=13/88259,88356,crf=13/88761,88798,crf=13/88861,88902,crf=13/105777,105939,crf=11/106093,106159,crf=11/106263,106398,crf=11/106527,106799,crf=11/107779,107880,crf=11/107960,108011,crf=13/108068,108217,crf=13/108316,108466,crf=13/108559,108690,crf=13/108788,109015,crf=13/109083,109144,crf=13/110814,111068,crf=13
Language : French
Default : Yes
Forced : No
_STATISTICS_WRITING_APP : mkvmerge v7.7.0 ('Six Voices') 32bit built on Feb 28 2015 23:23:00
_STATISTICS_WRITING_DATE_UTC : 2015-03-28 08:16:14
_STATISTICS_TAGS : BPS DURATION NUMBER_OF_FRAMES NUMBER_OF_BYTES
DURATION : 01:58:51.000000000
NUMBER_OF_FRAMES : 171144
NUMBER_OF_BYTES : 11654169271

Audio #1
ID : 2
Format : AC-3
Format/Info : Audio Coding 3
Mode extension : CM (complete main)
Format settings, Endianness : Big
Codec ID : A_AC3
Duration : 1h 58mn
Bit rate mode : Constant
Bit rate : 448 Kbps
Channel(s) : 6 channels
Channel positions : Front: L C R, Side: L R, LFE
Sampling rate : 48.0 KHz
Bit depth : 16 bits
Compression mode : Lossy
Stream size : 381 MiB (3%)
Title : Samba.2014.D.BDRip.1080p.ELEKTRI4KA.uniongang.tv [3imeMachi9e]
Language : Russian
Default : Yes
Forced : No

Audio #2
ID : 3
Format : AC-3
Format/Info : Audio Coding 3
Mode extension : CM (complete main)
Format settings, Endianness : Big
Codec ID : A_AC3
Duration : 1h 58mn
Bit rate mode : Constant
Bit rate : 640 Kbps
Channel(s) : 6 channels
Channel positions : Front: L C R, Side: L R, LFE
Sampling rate : 48.0 KHz
Bit depth : 16 bits
Compression mode : Lossy
Stream size : 544 MiB (5%)
Title : Samba.2014.D.BDRip.1080p.ELEKTRI4KA.uniongang.tv [3imeMachi9e]
Language : French
Default : No
Forced : No

Text
ID : 4
Format : UTF-8
Codec ID : S_TEXT/UTF8
Codec ID/Info : UTF-8 Plain Text
Title : SDH
Language : French
Default : No
Forced : No

Menu
00:00:00.000 : en:00:00:00.000
00:11:12.958 : en:00:11:12.958
00:19:54.833 : en:00:19:54.833
00:31:40.417 : en:00:31:40.417
00:40:49.750 : en:00:40:49.750
00:53:26.500 : en:00:53:26.500
01:01:21.208 : en:01:01:21.208
01:12:46.958 : en:01:12:46.958
01:23:59.667 : en:01:23:59.667
01:33:05.542 : en:01:33:05.542
01:42:50.917 : en:01:42:50.917
01:52:51.625 : en:01:52:51.625
Свернуть

_________________
Изображение Изображение Изображение
 WISHMASTER23 нравится это.
Не в сети
Профиль  
 Добавлено: 2015-04-08 22:44 (спустя 11 дней)
Кинокомментатор
Аватара пользователя
Стаж: 9 лет 1 месяц
Сообщений: 1332
Лайков: 54
Я приезжий) и сквозь любовь пройдёт моё спасенье...
ну я не знаю... кино на не очень привередливого зрителя) простое и лёгкое и мораль никакая) в общем приятного просмотра 6/10
_________________
Я ВКонтакте
Не в сети
Профиль  
 Добавлено: 2015-04-18 00:05 (спустя 9 дней)
Аватара пользователя
Стаж: 8 лет 8 месяцев
Сообщений: 4012
Спасибок: 163
Лайков: 1
И мораль никакая и сюжет никакой и в целом всё как-то никак. Истеричная баба в наличии. Проблема мигрантов затрагивается, но совсем не раскрывается и ни к каким выводам зрителя не побуждают.
_________________
Есть три вещи, которые должны делать профессионалы - лечить, учить, убивать. С остальным справятся и дилетанты.
Не в сети
Профиль  
Начать новую темуОтветить на тему  [ Сообщений: 3 ] 
Вы не можете начинать темы
Вы не можете отвечать на сообщения
Вы не можете редактировать свои сообщения
Вы не можете удалять свои сообщения