Правила форума

  • В этом разделе создание новых тем Запрещено.
  • Для создания новых тем пользуйтесь Корневым разделом DVD и HD фильмы.
Начать новую темуОтветить на тему  [ Сообщений: 6 ] 
Торрент файл
Размер: 17.13 GB • Зарегистрирован: 5 лет 8 месяцев • Статус: Проверено
Скачан: 44 раза • Желающих скачать: 0 • Поблагодарили: 17 раз
 Раздают: 1  |  0 KB/s  ]   Качают: 0  |  0 KB/s  ] 
Сообщения
 Добавлено: 2011-04-02 12:47
Инквизитор
Аватара пользователя
Стаж: 8 лет 8 месяцев
Сообщений: 3753
Спасибок: 28360
Лайков: 9
Изображение

Самый быстрый «Индиан» / The World's Fastest Indian


«Based On One Hell Of A True Story»

Год выпуска:2005
Страна: США, Япония, Швейцария, Новая Зеландия
Жанр: драма, биография, спорт
Продолжительность: 02:07:00
Перевод: Профессиональный (полное дублирование)
Режиссер: Роджер Дональдсон
Сценарий: Роджер Дональдсон
Продюсер: Роджер Дональдсон, Гари Хэннем, Дон Шэйн
Оператор: Дэвид Гриббл
Композитор: Дж. Питер Робинсон
В ролях: Энтони Хопкинс, Айэйн Ри, Тесса Митчел, Аарон Мерфи, Тим Шэдболт, Энни Уиттл, Грег Джонсон, Энтони Старр, Кейт Салливан, Крэйг Холл
Описание: Фильм рассказывает об истории жизни знаменитого новозеландца Берта Монро, который потратил десятилетия жизни на переоснащение своего любимого мотоцикла марки «Индиан» 1920 года выпуска с максимальной скоростью в 58 миль/ч в гоночный болид для установления рекорда скорости. И официальный рекорд (200 миль/ч) в конце концов был установлен! Это случилось в 1967 году.
Изображение
Бюджет: $25 000 000
Сборы в мире: $16 509 706
Изображение
MPAA: http://www.kinopoisk.ru/level/38/film/81512/rn/PG-13/
Раздача группы: Изображение
Качество: BD-Remux
Формат: MKV
Видео:MPEG2 Video 1920x1080 23.976fps ~15900 kbps
Аудио 1:Русский Dolby AC3 48000Hz 6ch 448 kbps (полное дублирование)
Аудио 2: English DTS 48000Hz 6ch 1536 kbps
Аудио 3: English Dolby AC3 48000Hz 6ch 640 kbps
Субтитры: Русские, английские
M.I.
Общее
Уникальный идентификатор         : 193577396972575821473571818034954313898 (0x91A1A689B2A3DF7B81C1B2EEDF8120AA)
Полное имя                       : K:\Фильмы\The.World.Fastest.Indian.2005.BDRemux.Rus.Eng.mkv
Формат                           : Matroska
Размер файла                     : 17,1 Гбайт
Продолжительность                : 2 ч. 7 м.
Общий поток                      : 19,3 Мбит/сек
Дата кодирования                 : UTC 2009-08-11 16:56:39
Программа кодирования            : mkvmerge v2.9.7 ('Tenderness') built on Jul  1 2009 18:43:35
Библиотека кодирования           : libebml v0.7.7 + libmatroska v0.8.1

Видео
Идентификатор                    : 1
Формат                           : MPEG Video
Версия формата                   : Version 2
Профиль формата                  : Main@High
Параметр BVOP формата            : Нет
Параметр матрицы формата         : По умолчанию
Идентификатор кодека             : V_MPEG2
Идентификатор кодека/Информация  : MPEG 1 or 2 Video
Продолжительность                : 2 ч. 7 м.
Вид битрейта                     : Переменный
Битрейт                          : 16,3 Мбит/сек
Номинальный битрейт              : 39,0 Мбит/сек
Ширина                           : 1920 пикс.
Высота                           : 1080 пикс.
Соотношение сторон               : 16:9
Частота кадров                   : 23,976 кадр/сек
Цветовое пространство            : YUV
Подвыборка цветности             : 4:2:0
Битовая глубина                  : 8 бит
Тип развёртки                    : Прогрессивная
Метод сжатия                     : С потерями
Бит/(Пиксели*Кадры)              : 0.328
Размер потока                    : 14,5 Гбайт (85%)

Аудио #1
Идентификатор                    : 2
Формат                           : AC-3
Формат/Информация                : Audio Coding 3
Расширение режима                : CM (complete main)
Идентификатор кодека             : A_AC3
Продолжительность                : 2 ч. 7 м.
Вид битрейта                     : Постоянный
Битрейт                          : 448 Кбит/сек
Канал(ы)                         : 6 канала(ов)
Расположение каналов             : Front: L C R, Side: L R, LFE
Частота                          : 48,0 КГц
Битовая глубина                  : 16 бит
Метод сжатия                     : С потерями
Размер потока                    : 407 Мбайт (2%)
Заголовок                        : AC3
Язык                             : Russian

Аудио #2
Идентификатор                    : 3
Формат                           : DTS
Формат/Информация                : Digital Theater Systems
Идентификатор кодека             : A_DTS
Продолжительность                : 2 ч. 7 м.
Вид битрейта                     : Постоянный
Битрейт                          : 1510 Кбит/сек
Канал(ы)                         : 6 канала(ов)
Расположение каналов             : Front: L C R, Side: L R, LFE
Частота                          : 48,0 КГц
Битовая глубина                  : 24 бит
Метод сжатия                     : С потерями
Размер потока                    : 1,34 Гбайт (8%)
Заголовок                        : DTS
Язык                             : Russian

Аудио #3
Идентификатор                    : 4
Формат                           : AC-3
Формат/Информация                : Audio Coding 3
Расширение режима                : CM (complete main)
Идентификатор кодека             : A_AC3
Продолжительность                : 2 ч. 7 м.
Вид битрейта                     : Постоянный
Битрейт                          : 640 Кбит/сек
Канал(ы)                         : 6 канала(ов)
Расположение каналов             : Front: L C R, Side: L R, LFE
Частота                          : 48,0 КГц
Битовая глубина                  : 16 бит
Метод сжатия                     : С потерями
Размер потока                    : 581 Мбайт (3%)
Заголовок                        : AC3
Язык                             : Russian

Текст #1
Идентификатор                    : 5
Формат                           : UTF-8
Идентификатор кодека             : S_TEXT/UTF8
Идентификатор кодека/Информация  : UTF-8 Plain Text
Заголовок                        : RUS
Язык                             : Russian

Текст #2
Идентификатор                    : 6
Формат                           : UTF-8
Идентификатор кодека             : S_TEXT/UTF8
Идентификатор кодека/Информация  : UTF-8 Plain Text
Заголовок                        : ENG
Язык                             : English
Свернуть
Скриншоты
Изображение
Изображение
Изображение
Изображение
Изображение
Изображение
Свернуть


Последний раз редактировалось Биг 2013-10-08 19:27, всего редактировалось 1 раз.
Не в сети
Профиль  
 Добавлено: 2011-04-02 23:27 (спустя 10 часов)
Модератор
Аватара пользователя
Стаж: 8 лет 1 месяц
Сообщений: 1991
Спасибок: 129863
Лайков: 20
Биг
Поддержу раздачу и рип с неё уже готов. :)
_________________
Себе ты можешь не качать, но раздавать другим обязан!
Не в сети
Профиль  
 Добавлено: 2011-04-02 23:49 (спустя 21 минута)
Аватара пользователя
Стаж: 8 лет 1 месяц
Сообщений: 10883
Спасибок: 4351
Лайков: 6
Хороший фильм. Смотрел год назад)
Не в сети
Профиль  
 Добавлено: 2011-04-03 10:12 (спустя 10 часов)
Инквизитор
Аватара пользователя
Стаж: 8 лет 8 месяцев
Сообщений: 3753
Спасибок: 28360
Лайков: 9
ам64
спс :)
Не в сети
Профиль  
 Добавлено: 2011-06-06 01:09 (спустя 2 месяца 2 дня)
Стаж: 7 лет 5 месяцев
Сообщений: 6
Хопкинс не подвёл. убедительно. рекомендовал бы, как обязательный для подрастающей пепси-поросли.
Всем советую,.. и получите драйв)
Не в сети
Профиль  
 Добавлено: 2014-01-25 22:43 (спустя 2 года 7 месяцев)
Аватара пользователя
Стаж: 7 лет
Возраст: 20
Сообщений: 10
раздайте пожалуйста
Не в сети
Профиль  
Начать новую темуОтветить на тему  [ Сообщений: 6 ] 
Вы не можете начинать темы
Вы не можете отвечать на сообщения
Вы не можете редактировать свои сообщения
Вы не можете удалять свои сообщения