Правила форума

  • В этом разделе создание новых тем Запрещено.
  • Для создания новых тем пользуйтесь Корневым разделом DVD и HD фильмы.
Начать новую темуОтветить на тему  [ Сообщений: 8 ] 
Торрент файл
Размер: 27.75 GB • Зарегистрирован: 3 года 11 месяцев • Статус: Проверено
Скачан: 71 раз • Желающих скачать: 0 • Поблагодарили: 21 раз
 Раздают: 0  |  0 KB/s  ]   Качают: 0  |  0 KB/s  ] 
 Полного источника не было 3 года 2 месяца 
Сообщения
 Добавлено: 2012-12-18 20:01
Аватара пользователя
Стаж: 4 года 2 месяца
Сообщений: 69
Спасибок: 218
Изображение

Самый пьяный округ в мире
Lawless


Год выпуска: 2012
Страна: США
Слоган: «Преступники станут легендой»
Жанр: драма, криминал
Продолжительность: 01:55:57
Перевод 1: Авторский (одноголосый закадровый) Ю.Сербин
Перевод 2: Одноголосый закадровый А. Дасевич по авторскому переводу Воронина
Перевод 3: Одноголосый закадровый lord666 (ненормативная лексика)
Cубтитры: русские , английские, испанские
Оригинальная аудиодорожка: английский
Режиссер: Джон Хиллкоут
Сценарий: Ник Кейв, Мэтт Бондурант
Продюсер: Дуглас Уик, Майкл Бенаройя, Меган Эллисон, Люси Фишер, Джон Аллен
Оператор: Бенуа Дельхомм
Композитор: Ник Кейв, Уоррен Эллис
В ролях: Шайа ЛаБаф, Том Харди, Гари Олдман, Джессика Честейн, Гай Пирс, Джейсон Кларк, Миа Васиковска, Дэйн ДеХаан, Крис МакГарри, Тим Толин, Лью Темпл, Маркус Хестер
Бюджет: $26 000 000
Сборы в США: $37 391 000
Сборы в мире: $52 190 335
Мировая премьера: 19 мая 2012
Описание: Действие в картине разворачивается на американском Юге во времена сухого закона и Великой Депрессии. В центре сюжета - семья Бондурант, три брата, Джек, Форрест и Говард, которые занимаются запрещенным в то время бизнесом, бутлегерством.
Оптимистично настроенный Джек, самый молодой из братьев, надеется с помощью бутлегерства заработать денег и произвести впечатление на свою девушку Берту. В это же время Форрест, напротив, настроен очень мрачно, он молчалив и подозрителен, а Говарду к тому же часто приходится иметь дело с врагами незаконного семейного бизнеса, в лице которых выступают коррумпированные местные полицейские.


Изображение User Rating: 7.560 (9 088)
Изображение User Rating: 7.40 (41 758)
MPAA: R - Лицам до 17 лет обязательно присутствие взрослого

Изображение
Качество: BDRemux 1080p , mkv
Видео: MPEG-4 AVC Video / 28,3 Мбит/сек / 1920x1080 / 23,976 / 16:9 / High Profile 4.1
Аудио 1: Russian: 48 kHz, DTS, 3/2 (L,C,R,l,r) + LFE ch, ~1536.00 kbps avg |Ю.Сербин|
Аудио 2: Russian: 48 kHz, DTS, 3/2 (L,C,R,l,r) + LFE ch, ~1536.00 kbps avg |А. Дасевич|
Аудио 3: Russian: 48 kHz, AC3, 3/2 (L,C,R,l,r) + LFE ch, ~640.00 kbps |lord666|
Аудио 4: English: 48 kHz, DTS, 3/2 (L,C,R,l,r) + LFE ch, ~1536.00 kbps |Original|
Аудио 5:English: 48 kHz, AC3, 2/0 (L,R) ch, ~192.00 kbps avg |Commentary by Director John Hillcoat|
Субтитры: Russian, English, Spanish
mediainfo
Общее
Уникальный идентификатор : 235600731444585028943670435084063793891 (0xB13F0CE4732136898ECA523E2270E2E3)
Полное имя : E:\Lawless.2012.1080p.BDRemux.mkv
Формат : Matroska
Версия формата : Version 2
Размер файла : 27,8 Гбайт
Продолжительность : 1 ч. 55 м.
Общий поток : 34,3 Мбит/сек
Дата кодирования : UTC 2012-12-11 17:53:29
Программа кодирования : mkvmerge v5.8.0 ('No Sleep / Pillow') built on Sep 2 2012 15:37:04
Библиотека кодирования : libebml v1.2.3 + libmatroska v1.3.0

Видео
Идентификатор : 1
Формат : AVC
Формат/Информация : Advanced Video Codec
Профиль формата : High@L4.1
Параметр CABAC формата : Да
Параметр ReFrames формата : 4 кадра
Идентификатор кодека : V_MPEG4/ISO/AVC
Продолжительность : 1 ч. 55 м.
Вид битрейта : Переменный
Битрейт : 28,3 Мбит/сек
Максимальный битрейт : 35,0 Мбит/сек
Ширина : 1920 пикселей
Высота : 1080 пикселей
Соотношение сторон : 16:9
Частота кадров : 23,976 кадра/сек
Цветовое пространство : YUV
Субдискретизация насыщенности : 4:2:0
Битовая глубина : 8 бит
Тип развёртки : Прогрессивная
Бит/(Пиксели*Кадры) : 0.569
Размер потока : 22,9 Гбайт (82%)

Аудио #1
Идентификатор : 2
Формат : DTS
Формат/Информация : Digital Theater Systems
Идентификатор кодека : A_DTS
Продолжительность : 1 ч. 55 м.
Вид битрейта : Постоянный
Битрейт : 1510 Кбит/сек
Каналы : 6 каналов
Расположение каналов : Front: L C R, Side: L R, LFE
Частота : 48,0 КГц
Битовая глубина : 24 бит
Метод сжатия : С потерями
Размер потока : 1,22 Гбайт (4%)
Заголовок : Авторский (одноголосый закадровый) Ю.Сербин
Язык : Russian

Аудио #2
Идентификатор : 3
Формат : DTS
Формат/Информация : Digital Theater Systems
Идентификатор кодека : A_DTS
Продолжительность : 1 ч. 55 м.
Вид битрейта : Постоянный
Битрейт : 1510 Кбит/сек
Каналы : 6 каналов
Расположение каналов : Front: L C R, Side: L R, LFE
Частота : 48,0 КГц
Битовая глубина : 24 бит
Метод сжатия : С потерями
Размер потока : 1,22 Гбайт (4%)
Заголовок : Одноголосый (закадровый) А. Дасевич по авторскому переводу Воронина
Язык : Russian

Аудио #3
Идентификатор : 4
Формат : AC-3
Формат/Информация : Audio Coding 3
Расширение режима : CM (complete main)
Идентификатор кодека : A_AC3
Продолжительность : 1 ч. 55 м.
Вид битрейта : Постоянный
Битрейт : 640 Кбит/сек
Каналы : 6 каналов
Расположение каналов : Front: L C R, Side: L R, LFE
Частота : 48,0 КГц
Битовая глубина : 16 бит
Метод сжатия : С потерями
Размер потока : 530 Мбайт (2%)
Заголовок : Одноголосый (закадровый) lord666 (ненормативная лексика)
Язык : Russian

Аудио #4
Идентификатор : 5
Формат : DTS
Формат/Информация : Digital Theater Systems
Идентификатор кодека : A_DTS
Продолжительность : 1 ч. 55 м.
Вид битрейта : Постоянный
Битрейт : 1510 Кбит/сек
Каналы : 6 каналов
Расположение каналов : Front: L C R, Side: L R, LFE
Частота : 48,0 КГц
Битовая глубина : 24 бит
Метод сжатия : С потерями
Размер потока : 1,22 Гбайт (4%)
Язык : English

Аудио #5
Идентификатор : 6
Формат : AC-3
Формат/Информация : Audio Coding 3
Расширение режима : CM (complete main)
Идентификатор кодека : A_AC3
Продолжительность : 1 ч. 55 м.
Вид битрейта : Постоянный
Битрейт : 192 Кбит/сек
Каналы : 2 канала
Расположение каналов : Front: L R
Частота : 48,0 КГц
Битовая глубина : 16 бит
Метод сжатия : С потерями
Размер потока : 159 Мбайт (1%)
Заголовок : Commentary by Director John Hillcoat
Язык : English

Текст #1
Идентификатор : 7
Формат : UTF-8
Идентификатор кодека : S_TEXT/UTF8
Идентификатор кодека/Информация : UTF-8 Plain Text
Заголовок : lord666
Язык : Russian

Текст #2
Идентификатор : 8
Формат : UTF-8
Идентификатор кодека : S_TEXT/UTF8
Идентификатор кодека/Информация : UTF-8 Plain Text
Язык : English

Текст #3
Идентификатор : 9
Формат : UTF-8
Идентификатор кодека : S_TEXT/UTF8
Идентификатор кодека/Информация : UTF-8 Plain Text
Язык : Spanish

Меню
00:00:00.000 : en:00:00:00.000
00:04:36.818 : en:00:04:36.818
00:09:16.639 : en:00:09:16.639
00:14:39.587 : en:00:14:39.587
00:21:55.689 : en:00:21:55.689
00:26:34.343 : en:00:26:34.343
00:34:23.895 : en:00:34:23.895
00:41:06.964 : en:00:41:06.964
00:48:30.825 : en:00:48:30.825
00:56:45.652 : en:00:56:45.652
01:05:11.074 : en:01:05:11.074
01:11:21.903 : en:01:11:21.903
01:19:30.724 : en:01:19:30.724
01:25:00.887 : en:01:25:00.887
01:31:49.838 : en:01:31:49.838
01:37:32.889 : en:01:37:32.889
01:44:44.737 : en:01:44:44.737
01:49:07.708 : en:01:49:07.708
Свернуть
"Знаете ли Вы, что..."
  • Фильм поставлен по книге Мэтта Бондуранта «Самое мокрое место в мире» (The Wettest County in the World: A Novel Based on a True Story). Бондурант написал свой роман, основываясь на подлинной истории своего деда.
  • Райан Гослинг рассматривался на роль Джека.
  • Мэгги могла сыграть Скарлетт Йоханссон.
  • Шайа ЛаБаф был первым актёром, утверждённым в фильме.
  • Первоначально Говарда должен был сыграть Джеймс Франко, а Форреста - Райан Гослинг.
  • Приглашая Джессику Честейн, Джон Хилкоут позвонил Терренсу Малику, у которого она снялась в «Древе жизни». По словам Хилкоута, он никогда не слышал столь лестных отзывов о ком-либо, тем более от Малика.
  • У Васиковски, Харди и Честейн не было кинопроб, в то время как у Джейсона Кларка и Дэйна ДеХаана - были.
  • Продюсеры фильма Дуглас Уик и Люси Фишер были столь впечатлены игрой Джейсона Кларка, что в дальнейшем рекомендовали его Базу Лурману для фильма «Великий Гэтсби».
  • Первоначально предполагалось, что персонаж Тома Харди будет более худым, но Харди пришлось набрать мышечную массу для фильма «Темный рыцарь: Возрождение легенды» (2012).
  • Когда Джека заставили ждать снаружи, пока Форрест и Говард мстят тем двоим, что напали на Форреста, освещение снаружи состоит из энергосберегающих ламп. Очевидно, что этот тип ламп не существовал в то время.
  • Телефонные столбы, которые показывают в некоторых сценах, так же держат и линии кабельного телевидения, некоторые из которых оснащены современными «петлями расширения». В США не было кабельного телевидения до 1948 года.
  • Когда Джек и Крикет сопровождают грузовик полный контрабандного спиртного, количество ящиков в кузове меняется несколько раз.
  • Во время перестрелки на мосту шериф стреляет в агента Рейкса, и, кажется, попадает в заднюю часть его левой ноги. Но когда Рейкс отступает к мосту, на его костюме не видно никаких признаков пулевого ранения или крови.
Свернуть
Скриншоты

Изображение
Изображение
Изображение
Изображение
Свернуть
Не в сети
Профиль  
 Добавлено: 2012-12-18 23:04 (спустя 3 часа)
Стаж: 7 лет 11 месяцев
Сообщений: 173
Спасибок: 325
А не в курсе когда дубляж появится?
Не в сети
Профиль  
 Добавлено: 2012-12-18 23:39 (спустя 35 минут)
Аватара пользователя
Стаж: 4 года 2 месяца
Сообщений: 69
Спасибок: 218
BeZZdel'nik_1
Пока что неизвестно)
Не в сети
Профиль  
 Добавлено: 2012-12-18 23:49 (спустя 9 минут)
Аватара пользователя
Стаж: 6 лет 5 месяцев
Сообщений: 19942
Спасибок: 721
Лайков: 459

okorok1994:

BeZZdel'nik_1
Пока что неизвестно)
Млиин! А я уж, надеялся на дубляж... :'(
_________________
It was I'am ... :jn_pu_sk:
Медали и Ордена
ИзображениеИзображение
Свернуть
Не в сети
Профиль  
 Добавлено: 2012-12-19 08:48 (спустя 8 часов)
Аватара пользователя
Стаж: 4 года 2 месяца
Сообщений: 69
Спасибок: 218
*ЖОРА*
думаю он может затянутся (
Не в сети
Профиль  
 Добавлено: 2012-12-28 14:24 (спустя 9 дней)
Аватара пользователя
Стаж: 6 лет 5 месяцев
Сообщений: 19942
Спасибок: 721
Лайков: 459
Пичалька.. :'(
_________________
It was I'am ... :jn_pu_sk:
Медали и Ордена
ИзображениеИзображение
Свернуть
Не в сети
Профиль  
 Добавлено: 2012-12-28 17:35 (спустя 3 часа)
Стаж: 7 лет 11 месяцев
Сообщений: 173
Спасибок: 325
Да уж, такой фильм только в дубляже смотреть.
Не в сети
Профиль  
 Добавлено: 2012-12-30 09:55 (спустя 1 день 16 часов)
Аватара пользователя
Стаж: 4 года 2 месяца
Сообщений: 69
Спасибок: 218
к счастью смотрел в кино)
Не в сети
Профиль  
Начать новую темуОтветить на тему  [ Сообщений: 8 ] 
Вы не можете начинать темы
Вы не можете отвечать на сообщения
Вы не можете редактировать свои сообщения
Вы не можете удалять свои сообщения