Правила форума

  • В этом разделе создание новых тем Запрещено.
  • Для создания новых тем пользуйтесь Корневым разделом DVD и HD фильмы.
Начать новую темуОтветить на тему  [ Сообщений: 4 ] 
Торрент файл
Размер: 13.48 GB • Зарегистрирован: 3 года 10 месяцев • Статус: Проверено
Скачан: 312 раз • Желающих скачать: 0 • Поблагодарили: 73 раза
 Раздают: 0  |  0 KB/s  ]   Качают: 0  |  0 KB/s  ] 
 Полного источника не было 4 дня 
Сообщения
 Добавлено: 2013-01-30 15:45
Аватара пользователя
Стаж: 9 лет 1 месяц
Сообщений: 8018
Спасибок: 122267
Лайков: 1194
Самый пьяный округ в мире / Lawless

«Преступники станут легендой»

Изображение


Год выпуска: 2012
Страна: Изображение США
Жанр: драма, криминал
Продолжительность: 01:55:45
Субтитры: Английские
Перевод: Профессиональный (полное дублирование)[лицензия]


Режиссёр: Джон Хиллкоут
Сценарист: Ник Кейв, Мэтт Бондурант
Продюсер: Майкл Бенаройя, Меган Эллисон, Люси Фишер
Оператор: Бенуа Дельхомм
Композитор: Ник Кейв, Уоррен Эллис

В ролях: Шайа ЛаБаф, Том Харди, Гари Олдман, Джессика Честейн, Гай Пирс, Миа Васиковска, Дэйн ДеХаан, Ноа Тейлор, Джейсон Кларк, Лью Темпл, Билл Кэмп, Брюс МакКиннон, Эрик Менденхолл, Рэндолл Фрэнкс, Крис МакГарри, Уильям Дж. Харрисон

Описание: Действие в картине разворачивается на американском Юге во времена сухого закона и Великой Депрессии. В центре сюжета — семья Бондурант, три брата, Джек, Форрест и Говард, которые занимаются запрещенным в то время бизнесом, бутлегерством.

Оптимистично настроенный Джек, самый молодой из братьев, надеется с помощью бутлегерства заработать денег и произвести впечатление на свою девушку Берту. В это же время Форрест, напротив, настроен очень мрачно, он молчалив и подозрителен, а Говарду к тому же часто приходится иметь дело с врагами незаконного семейного бизнеса, в лице которых выступают коррумпированные местные полицейские.


Изображение Изображение

Качество: BDRip (1080p)
Формат: Matroska
Видео: MPEG-4 AVC, 13900 Кбит/с, 1920x800, 23.976 кадр/с
Аудио №1: Русский (AC3, 6 ch, 448 Кбит/с)
Аудио №2: Русский (DTS, 6 ch, 768 Кбит/с)
Аудио №3: Английский (DTS, 6 ch, 1510 Кбит/с)

MediaInfo
Общее
Уникальный идентификатор : 218520669816257294912007948725159415100 (0xA4658CD6697D9D5CA03148602C8B4D3C)
Полное имя : H:\Lawless.2012.1080p.BluRay.Rus.Eng.HDCLUB (1).mkv
Формат : Matroska
Версия формата : Version 2
Размер файла : 13,5 Гбайт
Продолжительность : 1 ч. 55 м.
Общий поток : 16,7 Мбит/сек
Название фильма : Lawless (2012) - Release for HDCLUB by doclogan
Дата кодирования : UTC 2013-01-30 13:10:52
Программа кодирования : mkvmerge v5.7.0 ('The Whirlwind') built on Jul 29 2012 15:12:35
Библиотека кодирования : libebml v1.2.3 + libmatroska v1.3.0

Видео
Идентификатор : 1
Формат : AVC
Формат/Информация : Advanced Video Codec
Профиль формата : High@L4.1
Параметр CABAC формата : Да
Параметр ReFrames формата : 5 кадров
Идентификатор кодека : V_MPEG4/ISO/AVC
Продолжительность : 1 ч. 55 м.
Битрейт : 13,9 Мбит/сек
Ширина : 1920 пикселей
Высота : 800 пикселей
Соотношение сторон : 2,40:1
Режим частоты кадров : Постоянный
Частота кадров : 23,976 кадра/сек
Цветовое пространство : YUV
Субдискретизация насыщенности : 4:2:0
Битовая глубина : 8 бит
Тип развёртки : Прогрессивная
Бит/(Пиксели*Кадры) : 0.379
Размер потока : 11,0 Гбайт (82%)
Заголовок : Release for HDCLUB by doclogan
Библиотека кодирования : x264 core 125 r2208 d9d2288
Настройки программы : cabac=1 / ref=5 / deblock=1:-3:-3 / analyse=0x3:0x113 / me=umh / subme=10 / psy=1 / psy_rd=1.05:0.10 / mixed_ref=1 / me_range=32 / chroma_me=1 / trellis=2 / 8x8dct=1 / cqm=0 / deadzone=21,11 / fast_pskip=0 / chroma_qp_offset=-2 / threads=8 / lookahead_threads=1 / sliced_threads=0 / nr=0 / decimate=1 / interlaced=0 / bluray_compat=0 / constrained_intra=0 / bframes=6 / b_pyramid=2 / b_adapt=2 / b_bias=0 / direct=3 / weightb=1 / open_gop=0 / weightp=2 / keyint=250 / keyint_min=23 / scenecut=40 / intra_refresh=0 / rc=2pass / mbtree=0 / bitrate=13945 / ratetol=1.0 / qcomp=0.70 / qpmin=0 / qpmax=69 / qpstep=4 / cplxblur=20.0 / qblur=0.5 / ip_ratio=1.40 / pb_ratio=1.30 / aq=2:0.90
Язык : English
Default : Да
Forced : Нет

Аудио #1
Идентификатор : 2
Формат : AC-3
Формат/Информация : Audio Coding 3
Расширение режима : CM (complete main)
Параметр Endianness формата : Big
Идентификатор кодека : A_AC3
Продолжительность : 1 ч. 55 м.
Вид битрейта : Постоянный
Битрейт : 448 Кбит/сек
Каналы : 6 каналов
Расположение каналов : Front: L C R, Side: L R, LFE
Частота : 48,0 КГц
Битовая глубина : 16 бит
Метод сжатия : С потерями
Размер потока : 371 Мбайт (3%)
Default : Да
Forced : Да

Аудио #2
Идентификатор : 3
Формат : DTS
Формат/Информация : Digital Theater Systems
Режим : 16
Параметр Endianness формата : Big
Идентификатор кодека : A_DTS
Продолжительность : 1 ч. 55 м.
Вид битрейта : Постоянный
Битрейт : 768 Кбит/сек
Каналы : 6 каналов
Расположение каналов : Front: L C R, Side: L R, LFE
Частота : 48,0 КГц
Битовая глубина : 24 бит
Метод сжатия : С потерями
Размер потока : 636 Мбайт (5%)
Язык : Russian
Default : Нет
Forced : Нет

Аудио #3
Идентификатор : 4
Формат : DTS
Формат/Информация : Digital Theater Systems
Режим : 16
Параметр Endianness формата : Big
Идентификатор кодека : A_DTS
Продолжительность : 1 ч. 55 м.
Вид битрейта : Постоянный
Битрейт : 1509 Кбит/сек
Каналы : 6 каналов
Расположение каналов : Front: L C R, Side: L R, LFE
Частота : 48,0 КГц
Битовая глубина : 24 бит
Метод сжатия : С потерями
Размер потока : 1,22 Гбайт (9%)
Заголовок : DTS 5.1 @ 1.5 Mbps
Язык : English
Default : Нет
Forced : Нет

Текст
Идентификатор : 5
Формат : UTF-8
Идентификатор кодека : S_TEXT/UTF8
Идентификатор кодека/Информация : UTF-8 Plain Text
Язык : English
Default : Нет
Forced : Нет

Меню
00:00:00.000 : en:00:00:00.000
00:04:36.818 : en:00:04:36.818
00:09:16.639 : en:00:09:16.639
00:14:39.587 : en:00:14:39.587
00:21:55.689 : en:00:21:55.689
00:26:34.343 : en:00:26:34.343
00:34:23.895 : en:00:34:23.895
00:41:06.964 : en:00:41:06.964
00:48:30.825 : en:00:48:30.825
00:56:45.652 : en:00:56:45.652
01:05:11.074 : en:01:05:11.074
01:11:21.903 : en:01:11:21.903
01:19:30.724 : en:01:19:30.724
01:25:00.887 : en:01:25:00.887
01:31:49.838 : en:01:31:49.838
01:37:32.889 : en:01:37:32.889
01:44:44.737 : en:01:44:44.737
01:49:07.708 : en:01:49:07.708
Свернуть
Знаете ли вы, что...
Фильм поставлен по книге Мэтта Бондуранта «Самое мокрое место в мире» (The Wettest County in the World: A Novel Based on a True Story). Бондурант написал роман, основываясь на подлинной истории своего деда.

Райан Гослинг рассматривался на роль Джека.

Мэгги могла сыграть Скарлетт Йоханссон.

Шайа ЛаБаф был первым актером, утвержденным в фильм.

Первоначально Говарда должен был сыграть Джеймс Франко, а Форреста — Райан Гослинг.

Приглашая Джессику Честейн, Джон Хиллкоут позвонил Терренсу Малику, у которого она снялась в «Древе жизни». По словам Хиллкоута, он никогда не слышал столь лестных отзывов о ком-либо, тем более от Малика.

У Васиковской, Харди и Честейн не было кинопроб, в то время как у Джейсона Кларка и Дэйна ДеХаана они были.

Продюсеры фильма Дуглас Уик и Люси Фишер были столь впечатлены игрой Джейсона Кларка, что в дальнейшем рекомендовали его Базу Лурману для фильма «Великий Гэтсби».

Первоначально предполагалось, что персонаж Тома Харди будет более худым, но Харди пришлось набрать мышечную массу для фильма «Темный рыцарь: Возрождение легенды» (2012).

Когда Джека заставили ждать снаружи, пока Форрест и Говард мстят тем двоим, что напали на Форреста, освещение снаружи состоит из энергосберегающих ламп. Очевидно, что этот тип ламп не существовал в то время.

Телефонные столбы, которые показывают в некоторых сценах, также держат и линии кабельного телевидения, некоторые из которых оснащены современными петлями расширения. В США не было кабельного телевидения до 1948 года.

Когда Джек и Крикет сопровождают грузовик, полный контрабандного спиртного, количество ящиков в кузове меняется несколько раз.

Во время перестрелки на мосту шериф стреляет в агента Рейкса и, кажется, попадает в заднюю часть его левой ноги. Но, когда Рейкс отступает к мосту, на его костюме не видно никаких признаков пулевого ранения или крови.

Есть несколько знаков Double Cola (они даже выглядят старыми и ржавыми) рядом со станцией, но бренда Double Cola не было до 1933 года, а события в фильме разворачиваются в 1931 году.

В фильме можно заметить знак газировки Grapette, но, судя по grapette.com, компания начала свою деятельность только в 1939 году.

Когда Флойд Баннер подъезжает на своей машине и останавливается, чтобы устранить конкурента, слышно визг тормозящих по асфальту шин. Однако он ехал по грунтовой дороге.

Джек приехал к Крикету и был удивлен присутствием депутата. Когда депутат бьет его, на нем оба ботинка, но один ботинок остался в церкви в предыдущей сцене. Следующая сцена с Форрестом на станции, и он пожимает руку Джеку (с разбитым лицом). Его ботинок лежит в мешке.

Прежде чем идти в церковь, Джек открывает полную (32 унций) банку самогона и пьет, закрывает крышкой ее и выходит. Через мгновение мы видим, как Джек подходит к церкви с почти пустой банкой. Выглядит нереалистично, что он мог выпить более 20 унций (около 590 мл) стоградусного напитка за этот период времени и по-прежнему стоять на ногах.

Цветы на похоронах Крикета (лютики, восковой цветок, французские анемоны), вероятно, не были доступны в сельской местности в горах Вирджинии в то время. Более правдоподобно было бы, если бы они использовали полевые цветы, такие как золотарник и кружева королевы Анны.
Свернуть
Скриншоты
Изображение
Изображение
Изображение
Изображение
Изображение
Свернуть
Не в сети
Профиль  
 Добавлено: 2013-01-30 19:12 (спустя 3 часа)
Аватара пользователя
Стаж: 8 лет 9 месяцев
Сообщений: 1170
Спасибок: 1294
Лайков: 7
какого черта фильм не назвали просто "незаконный"
Не в сети
Профиль  
 Добавлено: 2013-01-30 20:07 (спустя 55 минут)
Аватара пользователя
Стаж: 8 лет 6 месяцев
Сообщений: 29
Спасибок: 32

Snork:

какого черта фильм не назвали просто "незаконный"
потому что так это не переводится
Не в сети
Профиль  
 Добавлено: 2013-02-02 19:30 (спустя 2 дня 23 часа)
Аватара пользователя
Стаж: 8 лет
Сообщений: 1390
Спасибок: 39
Лайков: 64
Ожидал большего, увидев список актеров подумал что-то крутое будет, фильм на реальных событиях - не более того, с таким же успехом документалку могли снять, больше 6 из 10 не дал бы :ne_znayu: За кач-во спасибо :co_ol:
Не в сети
Профиль  
Начать новую темуОтветить на тему  [ Сообщений: 4 ] 
Вы не можете начинать темы
Вы не можете отвечать на сообщения
Вы не можете редактировать свои сообщения
Вы не можете удалять свои сообщения