Правила форума

  • В этом разделе создание новых тем Запрещено.
  • Для создания новых тем пользуйтесь Корневым разделом DVD и HD фильмы.
Начать новую темуОтветить на тему  [ Сообщений: 3 ] 
Торрент файл
Размер: 5.74 GB • Зарегистрирован: 5 лет • Статус: Проверено
Скачан: 31 раз • Желающих скачать: 0 • Поблагодарили: 11 раз
 Раздают: 0  |  0 KB/s  ]   Качают: 0  |  0 KB/s  ] 
 Полного источника не было 2 месяца 1 день 
Сообщения
 Добавлено: 2011-11-20 15:23
Top-releaser
Стаж: 7 лет 4 месяца
Возраст: 33
Сообщений: 409
Спасибок: 6402
Лайков: 6
Самолетом, поездом, машиной
Planes, Trains & Automobiles

«What he really wanted was to spend Thanksgiving with his family.
What he got was three days with the turkey.»


Год выпуска: 1987
Изображение

Страна: США
Жанр: драма, комедия
Продолжительность: 01:32:28
Перевод: Профессиональный (многоголосый) + Авторский (Михалев А) + Оригинал

Режиссер: Джон Хьюз (John Hughes)
Сценарий: Джон Хьюз / John Hughes
Продюсер: Джон Хьюз / John Hughes, Билл Браун / Bill Brown, Майкл Чинич / Michael Chinich, Нил А. Мачлиз / Neil A. Machlis
Оператор: Дональд Питермен / Donald Peterman
Композитор: Айра Ньюборн / Ira Newborn

В ролях: Стив Мартин (Neal Page), Джон Кэнди (Del Griffith), Лайла Робинс (Susan Page), Майкл МакКин (State Trooper), Кевин Бейкон (Taxi Racer), Дилан Бейкер (Owen), Кэрол Брюс (Joy), Оливия Бернетт (Marti), Диана Дуглас (Peg), Мартин Ферреро (Second Motel Clerk), Ларри Хэнкин (Doobie), Ричард Херд (Walt)

Описание: Все, что было нужно преуспевающему «рекламщику» Нилу Пэйджу, так это успеть домой ко Дню Благодарения. Ведь это так просто: купить билет на самолет, совершить комфортабельный полет до родного Чикаго и уже вечером сесть за праздничный стол со всей своей семьей. Но случилось так, что это оказалось чудовищно трудной задачей. Путь домой станет для Нила самым невероятным приключением всей его жизни!

Рейтинг
Kinopoisk.RU: 7.599 (2 667)
Imdb.com: 7.50 (39 250)
Mpaa: Изображение

Качество: BDRip 720p
Формат: MKV
Видео: AVC; 1280x720 (16:9); 5305 Kbps; 23,976 fps; 0,240 bpp
Аудио 1: Rus; AC3; 384 Kbps; CBR; 6 ch - MVO
Аудио 2: Rus; DTS; 1509 Kbps; CBR; 6 ch - Михалев
Аудио 3: Eng; DTS; 1509 Kbps; CBR; 6 ch - Оригинал
Субтитры: English, English(SDH)

Релиз: Изображение
MI
General
Unique ID : 244465562336468210356859890127624176039 (0xB7EA5ACCCD40254BB790C6AE9D3781A7)
Complete name : D:\uTorrent\Planes, Trains & Automobiles.1987.720p.BluRay.Rus.Eng.HDCLUB.mkv
Format : Matroska
Format version : Version 2
File size : 5.74 GiB
Duration : 1h 32mn
Overall bit rate : 8 886 Kbps
Movie name : Planes, Trains & Automobiles (1987) - Release for HDCLUB
Encoded date : UTC 2011-11-20 10:29:58
Writing application : mkvmerge v4.9.1 ('Ich will') сборка от Jul 11 2011 23:53:15
Writing library : libebml v1.2.1 + libmatroska v1.1.1

Video
ID : 1
Format : AVC
Format/Info : Advanced Video Codec
Format profile : High@L4.1
Format settings, CABAC : Yes
Format settings, ReFrames : 8 frames
Codec ID : V_MPEG4/ISO/AVC
Duration : 1h 32mn
Bit rate : 5 305 Kbps
Width : 1 280 pixels
Height : 720 pixels
Display aspect ratio : 16:9
Frame rate : 23.976 fps
Color space : YUV
Chroma subsampling : 4:2:0
Bit depth : 8 bits
Scan type : Progressive
Bits/(Pixel*Frame) : 0.240
Stream size : 3.43 GiB (60%)
Title : Release for HDCLUB
Writing library : x264 core 92 r1510 33d382a
Encoding settings : cabac=1 / ref=8 / deblock=1:-3:-3 / analyse=0x3:0x133 / me=umh / subme=10 / psy=1 / psy_rd=1.00:0.00 / mixed_ref=1 / me_range=48 / chroma_me=1 / trellis=2 / 8x8dct=1 / cqm=0 / deadzone=21,11 / fast_pskip=1 / chroma_qp_offset=-2 / threads=3 / sliced_threads=0 / nr=0 / decimate=1 / interlaced=0 / constrained_intra=0 / bframes=6 / b_pyramid=2 / b_adapt=2 / b_bias=0 / direct=3 / wpredb=1 / wpredp=2 / keyint=240 / keyint_min=24 / scenecut=40 / intra_refresh=0 / rc_lookahead=60 / rc=crf / mbtree=1 / crf=17.0 / qcomp=0.60 / qpmin=10 / qpmax=51 / qpstep=4 / ip_ratio=1.40 / aq=1:1.00
Language : English

Audio #1
ID : 2
Format : AC-3
Format/Info : Audio Coding 3
Mode extension : CM (complete main)
Codec ID : A_AC3
Duration : 1h 32mn
Bit rate mode : Constant
Bit rate : 384 Kbps
Channel(s) : 6 channels
Channel positions : Front: L C R, Side: L R, LFE
Sampling rate : 48.0 KHz
Bit depth : 16 bits
Compression mode : Lossy
Stream size : 254 MiB (4%)
Title : (Mnogogolosyj zakadrovyj)
Language : Russian

Audio #2
ID : 3
Format : DTS
Format/Info : Digital Theater Systems
Codec ID : A_DTS
Duration : 1h 32mn
Bit rate mode : Constant
Bit rate : 1 510 Kbps
Channel(s) : 6 channels
Channel positions : Front: L C R, Side: L R, LFE
Sampling rate : 48.0 KHz
Bit depth : 24 bits
Compression mode : Lossy
Stream size : 999 MiB (17%)
Title : (Odnogolosyj zakadrovyj,A.Mihalev)
Language : Russian

Audio #3
ID : 4
Format : DTS
Format/Info : Digital Theater Systems
Codec ID : A_DTS
Duration : 1h 32mn
Bit rate mode : Constant
Bit rate : 1 510 Kbps
Channel(s) : 6 channels
Channel positions : Front: L C R, Side: L R, LFE
Sampling rate : 48.0 KHz
Bit depth : 24 bits
Compression mode : Lossy
Stream size : 999 MiB (17%)
Title : (Original)
Language : English

Text #1
ID : 5
Format : UTF-8
Codec ID : S_TEXT/UTF8
Codec ID/Info : UTF-8 Plain Text
Title : SRT
Language : English

Text #2
ID : 6
Format : UTF-8
Codec ID : S_TEXT/UTF8
Codec ID/Info : UTF-8 Plain Text
Title : SDH
Language : English

Menu
00:00:00.000 : :Chapter 01
00:02:41.202 : :Chapter 02
00:07:09.262 : :Chapter 03
00:12:11.981 : :Chapter 04
00:15:01.859 : :Chapter 05
00:17:29.965 : :Chapter 06
00:20:10.083 : :Chapter 07
00:27:51.711 : :Chapter 08
00:32:16.935 : :Chapter 09
00:35:51.065 : :Chapter 10
00:39:21.359 : :Chapter 11
00:41:47.463 : :Chapter 12
00:43:11.839 : :Chapter 13
00:45:33.856 : :Chapter 14
00:49:45.816 : :Chapter 15
00:51:17.532 : :Chapter 16
00:55:32.912 : :Chapter 17
00:57:05.296 : :Chapter 18
00:59:17.470 : :Chapter 19
01:01:50.957 : :Chapter 20
01:06:49.046 : :Chapter 21
01:09:36.630 : :Chapter 22
01:15:13.383 : :Chapter 23
01:18:46.555 : :Chapter 24
01:20:30.700 : :Chapter 25
01:24:49.793 : :Chapter 26
01:27:04.552 : :Chapter 27

Свернуть
Доп.информация
Цитата
Сохранены оригинальные чаптеры как на Blu-ray.
Исходный диск приобретен в рамках нового сервиса от HDCLUB -"Копилка: Помоги с Blu-ray" . Спонсоры: Васька64, Kator.
Подготовка звука dsk71, за что ему большое спасибо.
Свернуть
"Знаете ли Вы, что..."
  • В картине присутствует одна сцена, которая напрочь выпадает из этой, в целом, безконфликтной семейной комедии - ссора со служащей из конторы по прокату автомобилей, где герои фильма произносят слово «fuck» 19 раз. Из за этого фильм получил рейтинг R - MPAA, а эту сцену при показе фильма по телевидению чаще всего вырезают.
Свернуть
Скриншоты
Изображение

Изображение

Изображение
Свернуть
Не в сети
Профиль  
 Добавлено: 2011-11-21 10:42 (спустя 19 часов)
Аватара пользователя
Стаж: 7 лет 2 месяца
Сообщений: 7167
Спасибок: 82015
Лайков: 2438
Отпадная комедия! :ya_hoo_oo:
Не в сети
Профиль  
 Добавлено: 2013-08-21 09:26 (спустя 1 год 8 месяцев)
Стаж: 8 лет 9 месяцев
Сообщений: 79
Спасибок: 186
Лайков: 4
качаю! помогите с раздачей! ))
Не в сети
Профиль  
Начать новую темуОтветить на тему  [ Сообщений: 3 ] 
Вы не можете начинать темы
Вы не можете отвечать на сообщения
Вы не можете редактировать свои сообщения
Вы не можете удалять свои сообщения