Правила форума

  • В этом разделе создание новых тем Запрещено.
  • Для создания новых тем пользуйтесь Корневым разделом DVD и HD фильмы.
Начать новую темуОтветить на тему  [ 1 сообщение ] 
Торрент файл
Размер: 4.96 GB • Зарегистрирован: 3 года 4 месяца • Статус: Проверено
Скачан: 30 раз • Желающих скачать: 0 • Поблагодарили: 10 раз
 Раздают: 0  |  0 KB/s  ]   Качают: 0  |  0 KB/s  ] 
 Полного источника не было 2 года 2 месяца 
Сообщения
 Добавлено: 2013-07-22 14:34
Книголюб
Аватара пользователя
Стаж: 7 лет 2 месяца
Сообщений: 2823
Спасибок: 48827
Лайков: 73
Самозванец
The Imposter

«У всякой лжи - две правды»

Изображение


Год выпуска: 2012
Страна: Великобритания
Жанр: документальный, биография
Продолжительность: 01:38:34
Перевод: Профессиональный (дубляж) [лицензия]

Режиссёр: Барт Лэйтон
В ролях: Адам О’Брайн, Анна Рубен, Кэти Дресбах, Алан Тичман, Иван Вильянуэва, Мария Хесус Хойос, Антон Марти, Ампаро Фонтанет, Кен Эпплдорн, Кэри Гибсон, Фредерик Бурден
Описание: 1997 год. Пропавший три года назад Николас Баркли, мальчик из простой техасской семьи, невероятным образом найден в Испании. Семья счастлива: их не смущает даже то, что парень сменил цвет волос и глаз, говорит с акцентом и никого не узнаёт. На самом деле это Фредерик Бурден: самозванец-виртуоз и мастер обмана, менявший свою личность по меньшей мере 39 раз. Разоблачить мошенника Бурдена пытаются агент ФБР и частный детектив, но их ждёт встреча с куда более мрачными тайнами. Ведь у каждой лжи — две правды.
Рейтинг MPAA: Рейтинг R (Подростки до 17 лет допускаются на фильм только в сопровождении одного из родителей)
Мировая премьера: 23.01.2012
Изображение 7.3311184

Качество: BDRip 720p
Формат: MKV
Видео кодек: H264 (AVC)
Аудио кодек: AC3 (Dolby Digital)
Видео: 1280x544 24fps 5 717 Kbps
Аудио #1: RUS: 48000Hz 6ch 256 Kbps [Профессиональный (дубляж)]
Аудио #2: RUS: 48000Hz 6ch 448 Kbps [Любительский (одноголосый закадровый)]
Аудио #3: ENG: 48000Hz 6ch 640 Kbps [Оригинальная звуковая дорожка]
MediaInfo
General
Unique ID : 224168276639730117806543168591062368707 (0xA8A53D5A1C1085EE9A7940C5A16401C3)
Complete name : K:\Torrent\The.Imposter...mkv
Format : Matroska
Format version : Version 4 / Version 2
File size : 4.96 GiB
Duration : 1h 38mn
Overall bit rate : 7 204 Kbps
Movie name : CINEMANIA.CC
Encoded date : UTC 2013-07-20 09:33:43
Writing application : mkvmerge v6.3.0 ('You can't stop me!') built on Jun 28 2013 20:09:41
Writing library : libebml v1.3.0 + libmatroska v1.4.0

Video
ID : 1
Format : AVC
Format/Info : Advanced Video Codec
Format profile : High@L4.1
Format settings, CABAC : Yes
Format settings, ReFrames : 11 frames
Codec ID : V_MPEG4/ISO/AVC
Duration : 1h 38mn
Bit rate : 5 717 Kbps
Width : 1 280 pixels
Height : 544 pixels
Display aspect ratio : 2.35:1
Frame rate : 24.000 fps
Color space : YUV
Chroma subsampling : 4:2:0
Bit depth : 8 bits
Scan type : Progressive
Bits/(Pixel*Frame) : 0.342
Stream size : 3.94 GiB (79%)
Title : CINEMANIA.CC
Writing library : x264 core 129 r2230 1cffe9f
Encoding settings : cabac=1 / ref=11 / deblock=1:-3:-3 / analyse=0x3:0x133 / me=umh / subme=11 / psy=1 / psy_rd=1.10:0.00 / mixed_ref=1 / me_range=32 / chroma_me=1 / trellis=2 / 8x8dct=1 / cqm=0 / deadzone=21,11 / fast_pskip=0 / chroma_qp_offset=-2 / threads=18 / lookahead_threads=3 / sliced_threads=0 / nr=0 / decimate=0 / interlaced=0 / bluray_compat=0 / constrained_intra=0 / bframes=9 / b_pyramid=2 / b_adapt=2 / b_bias=0 / direct=3 / weightb=1 / open_gop=0 / weightp=2 / keyint=240 / keyint_min=24 / scenecut=40 / intra_refresh=0 / rc=crf / mbtree=0 / crf=16.8 / qcomp=0.60 / qpmin=0 / qpmax=69 / qpstep=4 / ip_ratio=1.40 / pb_ratio=1.30 / aq=2:0.80
Language : English
Default : Yes
Forced : No

Audio #1
ID : 2
Format : AC-3
Format/Info : Audio Coding 3
Mode extension : CM (complete main)
Codec ID : A_AC3
Duration : 1h 38mn
Bit rate mode : Constant
Bit rate : 256 Kbps
Channel(s) : 6 channels
Channel positions : Front: L C R, Side: L R, LFE
Sampling rate : 48.0 KHz
Bit depth : 16 bits
Compression mode : Lossy
Stream size : 181 MiB (4%)
Title : Дубляж (CD Land)
Default : No
Forced : No

Audio #2
ID : 3
Format : AC-3
Format/Info : Audio Coding 3
Mode extension : CM (complete main)
Codec ID : A_AC3
Duration : 1h 38mn
Bit rate mode : Constant
Bit rate : 448 Kbps
Channel(s) : 6 channels
Channel positions : Front: L C R, Side: L R, LFE
Sampling rate : 48.0 KHz
Bit depth : 16 bits
Compression mode : Lossy
Stream size : 316 MiB (6%)
Title : den904
Language : Russian
Default : Yes
Forced : Yes

Audio #3
ID : 4
Format : AC-3
Format/Info : Audio Coding 3
Mode extension : CM (complete main)
Codec ID : A_AC3
Duration : 1h 38mn
Bit rate mode : Constant
Bit rate : 640 Kbps
Channel(s) : 6 channels
Channel positions : Front: L C R, Side: L R, LFE
Sampling rate : 48.0 KHz
Bit depth : 16 bits
Compression mode : Lossy
Stream size : 451 MiB (9%)
Language : English
Default : No
Forced : No

Text #1
ID : 5
Format : UTF-8
Codec ID : S_TEXT/UTF8
Codec ID/Info : UTF-8 Plain Text
Title : Alpas/notabenoid]
Language : Russian
Default : Yes
Forced : Yes

Text #2
ID : 6
Format : UTF-8
Codec ID : S_TEXT/UTF8
Codec ID/Info : UTF-8 Plain Text
Language : English
Default : No
Forced : No

Menu
00:00:00.000 : en:00:00:00.000
00:09:35.000 : en:00:09:35.000
00:17:08.708 : en:00:17:08.708
00:24:02.125 : en:00:24:02.125
00:29:39.542 : en:00:29:39.542
00:38:07.750 : en:00:38:07.750
00:48:59.083 : en:00:48:59.083
00:58:24.958 : en:00:58:24.958
01:08:23.500 : en:01:08:23.500
01:16:15.792 : en:01:16:15.792
01:26:11.958 : en:01:26:11.958
01:30:26.167 : en:01:30:26.167


Свернуть

Скриншоты
Изображение
Изображение
Изображение
Свернуть
Не в сети
Профиль  
Начать новую темуОтветить на тему  [ 1 сообщение ] 
Вы не можете начинать темы
Вы не можете отвечать на сообщения
Вы не можете редактировать свои сообщения
Вы не можете удалять свои сообщения