Правила форума

  • В этом разделе создание новых тем Запрещено.
  • Для создания новых тем пользуйтесь Корневым разделом DVD и HD фильмы.
Начать новую темуОтветить на тему  [ Сообщений: 6 ] 
Торрент файл
Размер: 7.72 GB • Зарегистрирован: 3 года 4 месяца • Статус: Проверено
Скачан: 97 раз • Желающих скачать: 0 • Поблагодарили: 33 раза
 Раздают: 0  |  0 KB/s  ]   Качают: 0  |  0 KB/s  ] 
 Полного источника не было 1 год 2 месяца 
Сообщения
 Добавлено: 2013-07-22 18:24
Аватара пользователя
Стаж: 9 лет 1 месяц
Сообщений: 8018
Спасибок: 122267
Лайков: 1194
Самозванец / The Imposter

«У всякой лжи - две правды»

Изображение


Год выпуска: 2012
Страна: Изображение Великобритания
Жанр: документальный, биография
Продолжительность: 01:38:34
Субтитры: Русские, английские
Перевод: Профессиональный (полное дублирование) [Лицензия] + Любительский (одноголосый, закадровый)


Режиссер: Барт Лэйтон
Продюсер: Дмитрий Доганис, Джон Батсек, Сэм Браун
Оператор: Линда Холл, Эрик Уилсон
Композитор: Энн Никитин

В ролях: Фредерик Бурден, Адам О’Брайн, Кэри Гибсон, Анна Рубен, Беверли Доллархайд, Кэти Дресбах, Чарли Паркер, Алан Тичман, Нэнси Фишер, Иван Вильянуэва

Описание: 1997 год. Пропавший три года назад Николас Баркли, мальчик из простой техасской семьи, невероятным образом найден в Испании. Семья счастлива: их не смущает даже то, что парень сменил цвет волос и глаз, говорит с акцентом и никого не узнаёт. На самом деле это Фредерик Бурден: самозванец-виртуоз и мастер обмана, менявший свою личность по меньшей мере 39 раз. Разоблачить мошенника Бурдена пытаются агент ФБР и частный детектив, но их ждёт встреча с куда более мрачными тайнами. Ведь у каждой лжи — две правды.

Изображение Изображение

Раздача группы: Изображение

Качество: BDRip (1080p)
Формат: Matroska
Видео: MPEG-4 AVC, 9000 Кбит/с, 1920x816
Аудио №1: Русский (AC3, 48,0 КГц, 6 ch, 256 Кбит/c) Дубляж
Аудио №2: Русский (AC3, 48,0 КГц, 6 ch, 448 Кбит/c) Одноголосый
Аудио №3: Английский (DTS, 48,0 КГц, 6 ch, 1510 Кбит/c)

MediaInfo
Общее
Уникальный идентификатор : 232653627692133219414350742929751278557 (0xAF07757581B6CC7DBDF86578C2E603DD)
Полное имя : C:\Фильмы\Samozvanets.2012.D.BDRip.1080p.R.G.Daredevil.mkv
Формат : Matroska
Версия формата : Version 4 / Version 2
Размер файла : 7,72 Гбайт
Продолжительность : 1 ч. 38 м.
Общий поток : 11,2 Мбит/сек
Дата кодирования : UTC 2013-07-22 02:58:31
Программа кодирования : mkvmerge v6.1.0 ('Old Devil') built on Mar 2 2013 14:32:37
Библиотека кодирования : libebml v1.3.0 + libmatroska v1.4.0

Видео
Идентификатор : 1
Формат : AVC
Формат/Информация : Advanced Video Codec
Профиль формата : High@L4.1
Параметр CABAC формата : Да
Параметр ReFrames формата : 5 кадров
Идентификатор кодека : V_MPEG4/ISO/AVC
Продолжительность : 1 ч. 38 м.
Битрейт : 9000 Кбит/сек
Ширина : 1920 пикселей
Высота : 816 пикселей
Соотношение сторон : 2,35:1
Режим частоты кадров : Постоянный
Частота кадров : 24,000 кадра/сек
Цветовое пространство : YUV
Субдискретизация насыщенности : 4:2:0
Битовая глубина : 8 бит
Тип развёртки : Прогрессивная
Бит/(Пиксели*Кадры) : 0.239
Размер потока : 6,04 Гбайт (78%)
Библиотека кодирования : x264 core 130 r2273 b3065e6
Настройки программы : cabac=1 / ref=5 / deblock=1:-3:-3 / analyse=0x3:0x113 / me=umh / subme=11 / psy=1 / psy_rd=1.05:0.10 / mixed_ref=1 / me_range=32 / chroma_me=1 / trellis=2 / 8x8dct=1 / cqm=0 / deadzone=21,11 / fast_pskip=0 / chroma_qp_offset=-3 / threads=9 / lookahead_threads=1 / sliced_threads=0 / nr=0 / decimate=1 / interlaced=0 / bluray_compat=0 / constrained_intra=0 / bframes=9 / b_pyramid=2 / b_adapt=2 / b_bias=0 / direct=3 / weightb=1 / open_gop=0 / weightp=2 / keyint=250 / keyint_min=25 / scenecut=40 / intra_refresh=0 / rc_lookahead=40 / rc=2pass / mbtree=1 / bitrate=9000 / ratetol=1.0 / qcomp=0.60 / qpmin=10 / qpmax=51 / qpstep=4 / cplxblur=20.0 / qblur=0.5 / vbv_maxrate=50000 / vbv_bufsize=50000 / nal_hrd=none / ip_ratio=1.40 / aq=1:0.80
Язык : English
Default : Да
Forced : Нет

Аудио #1
Идентификатор : 2
Формат : AC-3
Формат/Информация : Audio Coding 3
Расширение режима : CM (complete main)
Параметр Endianness формата : Big
Идентификатор кодека : A_AC3
Продолжительность : 1 ч. 38 м.
Вид битрейта : Постоянный
Битрейт : 256 Кбит/сек
Каналы : 6 каналов
Расположение каналов : Front: L C R, Side: L R, LFE
Частота : 48,0 КГц
Битовая глубина : 16 бит
Метод сжатия : С потерями
Размер потока : 181 Мбайт (2%)
Заголовок : DUB
Язык : Russian
Default : Да
Forced : Нет

Аудио #2
Идентификатор : 3
Формат : AC-3
Формат/Информация : Audio Coding 3
Расширение режима : CM (complete main)
Параметр Endianness формата : Big
Идентификатор кодека : A_AC3
Продолжительность : 1 ч. 38 м.
Вид битрейта : Постоянный
Битрейт : 448 Кбит/сек
Каналы : 6 каналов
Расположение каналов : Front: L C R, Side: L R, LFE
Частота : 48,0 КГц
Битовая глубина : 16 бит
Метод сжатия : С потерями
Размер потока : 316 Мбайт (4%)
Заголовок : VO
Язык : Russian
Default : Нет
Forced : Нет

Аудио #3
Идентификатор : 4
Формат : DTS
Формат/Информация : Digital Theater Systems
Режим : 16
Параметр Endianness формата : Big
Идентификатор кодека : A_DTS
Продолжительность : 1 ч. 38 м.
Вид битрейта : Постоянный
Битрейт : 1509 Кбит/сек
Каналы : 6 каналов
Расположение каналов : Front: L C R, Side: L R, LFE
Частота : 48,0 КГц
Битовая глубина : 16 бит
Метод сжатия : С потерями
Размер потока : 1,04 Гбайт (13%)
Заголовок : Original
Язык : English
Default : Нет
Forced : Нет

Текст #1
Идентификатор : 5
Формат : UTF-8
Идентификатор кодека : S_TEXT/UTF8
Идентификатор кодека/Информация : UTF-8 Plain Text
Заголовок : SDH
Язык : Russian
Default : Нет
Forced : Нет

Текст #2
Идентификатор : 6
Формат : UTF-8
Идентификатор кодека : S_TEXT/UTF8
Идентификатор кодека/Информация : UTF-8 Plain Text
Заголовок : SDH
Язык : English
Default : Нет
Forced : Нет

Меню
00:00:00.000 : en:Missing
00:09:28.000 : en:See If It's Him
00:17:01.708 : en:FBI
00:23:55.125 : en:Escape Attempt
00:29:32.541 : en:No Other Way
00:38:00.750 : en:Let's Go Home
00:48:52.083 : en:FBI Interview
00:58:17.958 : en:Charlie Parker P.I.
01:08:16.500 : en:Family Secret
01:16:08.791 : en:Frédéric Bourdin
01:26:04.958 : en:Digging
01:30:19.166 : en:Liar?
Свернуть
Знаете ли вы, что...
Как минимум в пяти сценах видны высокие горы на фоне, включая сцену в аэропорту, сцену со школьным автобусом Николаса, и когда дети гуляют по пустырю. Предполагаемое место действия Сан-Антонио (Техас), но это не вяжется с тем, что на фоне мы видим настоящие горы. В финальных титрах все же указали, что некоторые сцены были сняты в Аризоне, в том числе в Финиксе, Бакайе и Авондейле, где на самом деле есть многочисленные горные хребты.
Свернуть
Скриншоты
Изображение
Изображение
Изображение
Изображение
Свернуть
Не в сети
Профиль  
 Добавлено: 2013-07-27 15:58 (спустя 4 дня)
Аватара пользователя
Стаж: 6 лет
Сообщений: 75
Лайков: 1
На самом деле это Фредерик Бурден: самозванец-виртуоз -


В ролях: Фредерик Бурден :sh_ok: :sh_ok: :sh_ok: what the fuck ?! :du_ma_et: :du_ma_et:
 JAPAN_XPEH нравится это.
Не в сети
Профиль  
 Добавлено: 2013-07-27 18:06 (спустя 2 часа 7 минут)
Супермодератор Инквизиции
Аватара пользователя
Стаж: 8 лет 3 месяца
Возраст: 51
Сообщений: 37877
Спасибок: 1089
Лайков: 2725
massssaget
он просто под мальчика закосил ;;-)))
_________________
████████████ - сотри монеткой, чтобы получить пароль от этого аккаунта
Пират у копираста спиратил пиастры, копираст у пирата скопипастил фрегат :ps_ih:
Не в сети
Профиль  
 Добавлено: 2013-07-31 11:48 (спустя 3 дня)
Кинокомментатор
Аватара пользователя
Стаж: 8 лет 1 месяц
Сообщений: 1325
Спасибок: 794
Лайков: 35

massssaget:

На самом деле это Фредерик Бурден: самозванец-виртуоз -


В ролях: Фредерик Бурден :sh_ok: :sh_ok: :sh_ok: what the fuck ?! :du_ma_et: :du_ma_et:


Присоединяюсь к вопросу...
Не в сети
Профиль  
 Добавлено: 2013-07-31 16:00 (спустя 4 часа)
Кинокомментатор
Аватара пользователя
Стаж: 8 лет 1 месяц
Сообщений: 1325
Спасибок: 794
Лайков: 35
Ску-ко-та!
Не в сети
Профиль  
 Добавлено: 2013-08-15 02:16 (спустя 14 дней)
Аватара пользователя
Стаж: 7 лет 8 месяцев
Сообщений: 933
Лайков: 50
ну а что вы хотели от документального фильма то))
где это Фредерик Бурден играет самого себя))
Не в сети
Профиль  
Начать новую темуОтветить на тему  [ Сообщений: 6 ] 
Вы не можете начинать темы
Вы не можете отвечать на сообщения
Вы не можете редактировать свои сообщения
Вы не можете удалять свои сообщения