Правила форума

  • В этом разделе создание новых тем Запрещено.
  • Для создания новых тем пользуйтесь Корневым разделом DVD и HD фильмы.
Начать новую темуОтветить на тему  [ Сообщений: 5 ] 
Торрент файл
Размер: 14.3 GB • Зарегистрирован: 5 лет 7 месяцев • Статус: Проверено
Скачан: 307 раз • Желающих скачать: 0 • Поблагодарили: 41 раз
 Раздают: 0  |  0 KB/s  ]   Качают: 0  |  0 KB/s  ] 
 Полного источника не было 1 месяц 3 дня 
Сообщения
 Добавлено: 2011-04-17 10:37
Модератор
Аватара пользователя
Стаж: 8 лет 1 месяц
Возраст: 20
Сообщений: 32130
Спасибок: 98569
Лайков: 80
Санктум / Sanctum
«Единственное спасение - глубина»

Изображение
Год выпуска: 2011
Страна: США, Австралия
Жанр: триллер, драма, приключения
Продолжительность: 01:44:22
Перевод: Профессиональный (полное дублирование) [лицензия]

Режиссер: Алистер Грирсон / Alister Grierson
Сценарий: Джон Гарвин / John Garvin, Эндрю Уайт / Andrew Wight
Продюсер: Бен Браунинг / Ben Browning, Джеймс Кэмерон / James Cameron, Райан Кэвэна / Ryan Kavanaugh, Майкл Мехер / Michael Maher, Питер Роулинсон / Peter Rawlinson
Оператор: Жуль О’Лофлин / Jules O'Loughlin
Композитор: Дэвид Хиршфелдер / David Hirschfelder

В ролях: Ричард Роксбург (Frank), Риз Уэйкфилд (Josh), Йоан Гриффит (Carl), Элис Паркинсон (Victoria), Дэниэл Уилли (Crazy George), Кристофер Бэйкер (J.D.), Элисон Крэтчли (Judes), Крамер Кэйн (Luko), Эндрю Хансен (Dex), Джон Гарвин (Jim Sergeant), Шон Деннехи (Chopper Pilot), Nea Diap (Kastom Shaman)
Описание: Группа дайверов предпринимает очень рискованную экспедицию в самую большую систему пещер на Земле - невероятно красивую и почти недоступную. Неожиданный тропический шторм вынуждает их спуститься глубоко в пещеры. Единственное спасение для исследователей - найти неизвестный второй выход к морю, преодолевая неистовую стихию бушующих вод, коварные ловушки подземелий и смертельный ужас...

Раздача: Изображение

Изображение
Изображение
Доп. информация
Бюджет: $30 000 000
Сборы в мире: $48 577 775
Сборы в США: $22 277 775
Сборы в России: $7 872 544
Мировая премьера: 3 февраля 2011
Изображение Релиз на DVD: 3 марта 2011, «New Dream media», «Новый Диск»
MediaInfo
Общее
Полное имя                       : Sanktum.2011.x264.BDRip(1080p).mkv
Формат                           : Matroska
Размер файла                     : 14,3 Гбайт
Продолжительность                : 1 ч. 48 м.
Общий поток                      : 18,8 Мбит/сек
Дата кодирования                 : UTC 2011-04-16 17:06:31
Программа кодирования            : mkvmerge v4.6.0 ('Still Crazy After All These Years') сборка от Mar 10 2011 02:50:32
Библиотека кодирования           : libebml v1.2.0 + libmatroska v1.1.0

Видео
Идентификатор                    : 1
Формат                           : AVC
Формат/Информация                : Advanced Video Codec
Профиль формата                  : High@L4.1
Параметр CABAC формата           : Да
Параметр ReFrames формата        : 4 кадры
Идентификатор кодека             : V_MPEG4/ISO/AVC
Продолжительность                : 1 ч. 48 м.
Битрейт                          : 15,4 Мбит/сек
Ширина                           : 1920 пикс.
Высота                           : 1080 пикс.
Соотношение сторон               : 16:9
Частота кадров                   : 23,976 кадр/сек
Цветовое пространство            : YUV
Подвыборка цветности             : 4:2:0
Битовая глубина                  : 8 бит
Тип развёртки                    : Прогрессивная
Бит/(Пиксели*Кадры)              : 0.309
Размер потока                    : 11,4 Гбайт (80%)
Библиотека кодирования           : x264 core 114 r1913 5fd3dce
Настройки программы              : cabac=1 / ref=4 / deblock=1:-3:-3 / analyse=0x3:0x133 / me=umh / subme=10 / psy=1 / psy_rd=1.05:0.10 / mixed_ref=1 / me_range=32 / chroma_me=1 / trellis=2 / 8x8dct=1 / cqm=0 / deadzone=21,11 / fast_pskip=1 / chroma_qp_offset=-3 / threads=9 / sliced_threads=0 / nr=0 / decimate=1 / interlaced=0 / constrained_intra=0 / bframes=6 / b_pyramid=2 / b_adapt=2 / b_bias=0 / direct=3 / weightb=1 / open_gop=0 / weightp=2 / keyint=250 / keyint_min=23 / scenecut=40 / intra_refresh=0 / rc_lookahead=60 / rc=2pass / mbtree=1 / bitrate=15359 / ratetol=1.0 / qcomp=0.70 / qpmin=1 / qpmax=63 / qpstep=4 / cplxblur=20.0 / qblur=0.5 / vbv_maxrate=50000 / vbv_bufsize=62500 / nal_hrd=none / ip_ratio=1.40 / aq=1:0.80

Аудио #1
Идентификатор                    : 2
Формат                           : DTS
Формат/Информация                : Digital Theater Systems
Идентификатор кодека             : A_DTS
Продолжительность                : 1 ч. 48 м.
Вид битрейта                     : Постоянный
Битрейт                          : 1510 Кбит/сек
Канал(ы)                         : 6 канала(ов)
Расположение каналов             : Front: L C R, Side: L R, LFE
Частота                          : 48,0 КГц
Битовая глубина                  : 16 бит
Метод сжатия                     : С потерями
Размер потока                    : 1,15 Гбайт (8%)
Язык                             : Russian

Аудио #2
Идентификатор                    : 3
Формат                           : AC-3
Формат/Информация                : Audio Coding 3
Расширение режима                : CM (complete main)
Идентификатор кодека             : A_AC3
Продолжительность                : 1 ч. 48 м.
Вид битрейта                     : Постоянный
Битрейт                          : 448 Кбит/сек
Канал(ы)                         : 6 канала(ов)
Расположение каналов             : Front: L C R, Side: L R, LFE
Частота                          : 48,0 КГц
Битовая глубина                  : 16 бит
Метод сжатия                     : С потерями
Размер потока                    : 349 Мбайт (2%)
Язык                             : Ukrainian

Аудио #3
Идентификатор                    : 4
Формат                           : DTS
Формат/Информация                : Digital Theater Systems
Идентификатор кодека             : A_DTS
Продолжительность                : 1 ч. 48 м.
Вид битрейта                     : Постоянный
Битрейт                          : 1510 Кбит/сек
Канал(ы)                         : 6 канала(ов)
Расположение каналов             : Front: L C R, Side: L R, LFE
Частота                          : 48,0 КГц
Битовая глубина                  : 16 бит
Метод сжатия                     : С потерями
Размер потока                    : 1,15 Гбайт (8%)
Язык                             : English

Свернуть
Свернуть

MPAA: Изображение
Качество: BDRip 1080p R5
Формат: MKV
Видео: 15,4 mb/s, 1920х1080, 23,976 кадр/сек
Аудио: Russian / English: DTS, 1510 kb/s (6 ch) / Ukrainian: AC3, 448 kb/s (6 ch)

Знаете ли Вы, что...
  • В фильме используется такая же техника съёмки, как и в Аватаре.
  • Фильм основан на реальном событии, произошедшем с Эндрю Уайтом - соавтором сценария. Однажды Эндрю и еще 14 человек занимались дайвингом в пещерах, в это время вход в их пещеру обрушился. В течение двух дней Эндрю и другие дайверы искали другой выход.
  • В переводе с латыни sanctum — святой, а с английского — святилище.
Свернуть
Скриншоты
Изображение

Изображение

Изображение
Свернуть
Не в сети
Профиль  
 Добавлено: 2011-04-22 17:25 (спустя 5 дней)
Стаж: 6 лет 11 месяцев
Сообщений: 5
Дайте скорости...
Не в сети
Профиль  
 Добавлено: 2013-08-27 13:46 (спустя 2 года 4 месяца)
Аватара пользователя
Стаж: 9 лет
Возраст: 29
Сообщений: 544
Спасибок: 2553
Лайков: 2
раздайте кто нибудь плиз
Не в сети
Профиль  
 Добавлено: 2013-10-05 23:17 (спустя 1 месяц 9 дней)
Аватара пользователя
Стаж: 9 лет
Сообщений: 81
Спасибок: 1357
Лайков: 2
Граждане, раздайте кто-нибудь)
Не в сети
Профиль  
 Добавлено: 2014-02-02 14:22 (спустя 3 месяца 27 дней)
Аватара пользователя
Стаж: 7 лет 11 месяцев
Возраст: 24
Сообщений: 190
Спасибок: 422
Что то кроме украинского другие языки не видит.
Не в сети
Профиль  
Начать новую темуОтветить на тему  [ Сообщений: 5 ] 
Вы не можете начинать темы
Вы не можете отвечать на сообщения
Вы не можете редактировать свои сообщения
Вы не можете удалять свои сообщения