Правила форума

  • В этом разделе создание новых тем Запрещено.
  • Для создания новых тем пользуйтесь Корневым разделом DVD и HD фильмы.
Начать новую темуОтветить на тему  [ Сообщений: 6 ] 
Торрент файл
Размер: 22.04 GB • Зарегистрирован: 5 лет 7 месяцев • Статус: Проверено
Скачан: 63 раза • Желающих скачать: 0 • Поблагодарили: 20 раз
 Раздают: 0  |  0 KB/s  ]   Качают: 0  |  0 KB/s  ] 
 Полного источника не было 3 года 2 месяца 
Сообщения
 Добавлено: 2011-04-17 03:35
Top-releaser
Аватара пользователя
Стаж: 7 лет 3 месяца
Возраст: 25
Сообщений: 1036
Спасибок: 2694
Лайков: 9
Санктум / Sanctum

«Единственное спасение - глубина»

Изображение



Год выхода: 2011
Страна: США, Австралия

Жанр: триллер, драма, приключения
Продолжительность: 01:44:22
Перевод: Дублированный [лицензия]

Режиссер: Алистер Грирсон
Сценарий: Джон Гарвин, Эндрю Уайт
Продюсер: Бен Браунинг, Джеймс Кэмерон, Райан Кэвэна
Оператор: Джулс О’Лафлин
Композитор: Дэвид Хиршфелдер

В ролях: Ричард Роксбург, Йоан Гриффит, Риз Уэйкфилд, Элис Паркинсон, Дэниэл Уилли, Кристофер Бэйкер, Элисон Крэтчли, Крамер Кэйн, Эндрю Хансен, Джон Гарвин

Описание: Группа дайверов предпринимает очень рискованную экспедицию в самую большую систему пещер на Земле — невероятно красивую и почти недоступную. Неожиданный тропический шторм вынуждает их спуститься глубоко в пещеры. Единственное спасение для исследователей — найти неизвестный второй выход к морю, преодолевая неистовую стихию бушующих вод, коварные ловушки подземелий и смертельный ужас…

Бюджет: $30 000 000
Сборы в США: $23 209 310
Сборы в мире: + $48 000 000 = $71 209 310
Сборы в России: $8 669 714

KinoPoisk.ru: 6.552
IMDb.com: 5.7/10

Pаздача группы:Изображение

Качество: BD-Remux
Формат: Mkv

Видео: MPEG4 Video (H264) 1920x1080 23.98fps
Аудио 1: Russian: DTS-HD, 1561 kb/s (6 ch) / AC3, 640 kb/s (6 ch)
Аудио 2: English: DTS-HD, 1561 kb/s (6 ch)

MediaInfo
General
Unique ID : 214265304459932027257334238097498583414 (0xA131FF208A1B8C02B370EB3902123176)
Complete name : D:\Sanctum.2011.x264.BDRemux.mkv
Format : Matroska
File size : 22.0 GiB
Duration : 1h 48mn
Overall bit rate : 29.0 Mbps
Encoded date : UTC 2011-04-15 15:20:14
Writing application : mkvmerge v4.4.0 ('Die Wiederkehr') сборка от Oct 31 2010 21:52:48
Writing library : libebml v1.0.0 + libmatroska v1.0.0

Video
ID : 1
Format : AVC
Format/Info : Advanced Video Codec
Format profile : High@L4.1
Format settings, CABAC : Yes
Format settings, ReFrames : 4 frames
Codec ID : V_MPEG4/ISO/AVC
Duration : 1h 48mn
Bit rate mode : Variable
Bit rate : 24.7 Mbps
Maximum bit rate : 35.0 Mbps
Width : 1 920 pixels
Height : 1 080 pixels
Display aspect ratio : 16:9
Frame rate : 23.976 fps
Standard : NTSC
Color space : YUV
Chroma subsampling : 4:2:0
Bit depth : 8 bits
Scan type : Progressive
Bits/(Pixel*Frame) : 0.496
Stream size : 18.7 GiB (85%)
Language : English
Color primaries : BT.709-5, BT.1361, IEC 61966-2-4, SMPTE RP177
Transfer characteristics : BT.709-5, BT.1361
Matrix coefficients : BT.709-5, BT.1361, IEC 61966-2-4 709, SMPTE RP177

Audio #1
ID : 2
Format : AC-3
Format/Info : Audio Coding 3
Mode extension : CM (complete main)
Codec ID : A_AC3
Duration : 1h 48mn
Bit rate mode : Constant
Bit rate : 640 Kbps
Channel(s) : 6 channels
Channel positions : Front: L C R, Side: L R, LFE
Sampling rate : 48.0 KHz
Bit depth : 16 bits
Compression mode : Lossy
Stream size : 498 MiB (2%)
Language : Russian

Audio #2
ID : 3
Format : DTS
Format/Info : Digital Theater Systems
Format profile : MA / Core
Codec ID : A_DTS
Duration : 1h 48mn
Bit rate mode : Variable
Bit rate : 1 561 Kbps / 1 510 Kbps
Channel(s) : 6 channels
Channel positions : Front: L C R, Side: L R, LFE
Sampling rate : 48.0 KHz
Bit depth : 16 bits
Compression mode : Lossless / Lossy
Language : Russian

Audio #3
ID : 4
Format : DTS
Format/Info : Digital Theater Systems
Format profile : MA / Core
Codec ID : A_DTS
Duration : 1h 48mn
Bit rate mode : Variable
Bit rate : 1 561 Kbps / 1 510 Kbps
Channel(s) : 6 channels
Channel positions : Front: L C R, Side: L R, LFE
Sampling rate : 48.0 KHz
Bit depth : 16 bits
Compression mode : Lossless / Lossy
Language : English


Свернуть
Скриншоты
Изображение
Изображение
Изображение
Изображение
Изображение
Изображение
Свернуть
Не в сети
Профиль  
 Добавлено: 2011-04-18 09:42 (спустя 1 день 6 часов)
Стаж: 5 лет 10 месяцев
Сообщений: 280
Лайков: 8
встаньте пожалуйста на раздачу...не жадничайте.
Не в сети
Профиль  
 Добавлено: 2011-04-18 18:44 (спустя 9 часов)
Top-releaser
Аватара пользователя
Стаж: 7 лет 3 месяца
Возраст: 25
Сообщений: 1036
Спасибок: 2694
Лайков: 9
Longbeach я и не уходил :)
Не в сети
Профиль  
 Добавлено: 2011-05-06 10:59 (спустя 17 дней)
Стаж: 6 лет 10 месяцев
Сообщений: 1
что за хер..я четверо раздают со скоростью 18 KB/s , пипец у вас модемы dial-up? :ne_ne:
Не в сети
Профиль  
 Добавлено: 2011-05-11 22:33 (спустя 5 дней)
Пользователь забанен
Аватара пользователя
Стаж: 6 лет 7 месяцев
Сообщений: 23
Спасибок: 15
спасибо :co_ol:
Не в сети
Профиль  
 Добавлено: 2011-05-22 11:13 (спустя 10 дней)
Стаж: 6 лет 3 месяца
Сообщений: 1
Ну и херня этот фильм. Набрали каких-то истеричек (женского и мужского полу) в группу казалось бы опытных спелеологов, и весь фильм - это разборки этих истеричек с летальными исходами.
Не в сети
Профиль  
Начать новую темуОтветить на тему  [ Сообщений: 6 ] 
Вы не можете начинать темы
Вы не можете отвечать на сообщения
Вы не можете редактировать свои сообщения
Вы не можете удалять свои сообщения