Правила форума

  • В этом разделе создание новых тем Запрещено.
  • Для создания новых тем пользуйтесь Корневым разделом DVD и HD фильмы.
Начать новую темуОтветить на тему  [ Сообщений: 5 ] 
Торрент файл
Размер: 9.75 GB • Зарегистрирован: 3 года 9 месяцев • Статус: Проверено
Скачан: 183 раза • Желающих скачать: 0 • Поблагодарили: 54 раза
 Раздают: 0  |  0 KB/s  ]   Качают: 0  |  0 KB/s  ] 
 Полного источника не было 22 дня 
Сообщения
 Добавлено: 2013-02-09 09:09
Top-releaser
Аватара пользователя
Стаж: 8 лет 9 месяцев
Сообщений: 479
Спасибок: 20188
Лайков: 16
Изображение

Сайлент Хилл 2

Silent Hill: Revelation 3D


«В этот Хэллоуин 3D путешествие в ад»

Год выпуска: 2012
Страна: Франция, США, Канада; Silent Hill 2 DCP, Sony Pictures Entertainment (SPE)
Жанр: Ужасы, триллер, детектив
Продолжительность: 01:34:46
Перевод: Профессиональный (дублированный) [Лицензия], Оригинал
Субтитры: Русские

Режиссёр: Майкл Дж. Бассетт / Michael J. Bassett

В ролях: Эделейд Клеменс (Heather / Alessa), Кит Харингтон (Vincent), Дебора Кара Ангер (Dahlia), Мартин Донован (Douglas), Малкольм МакДауэлл (Leonard), Кэрри-Энн Мосс (Claudia Wolf), Шон Бин (Harry), Рада Митчелл (Rose Da Silva), Роберто Кампанелла (Red Pyramid), Эрин Питт (Sharon / Young Alessa), Питер Аутербридж (Travis Grady), Джефферсон Браун (Detective Santini)

Описание: Хизер терзается ночными кошмарами с одиннадцатилетнего возраста и вынуждена со своим отцом постоянно менять место жительства, скрываясь от таинственных сил. Накануне своего восемнадцатого дня рождения Хизер, вернувшись домой, обнаруживает, что её отец исчез. Единственное, что она нашла дома — нарисованный на стене оккультный символ с надписью «отправляйся в Сайлент Хилл».


Качество: BDRip 1080p R5
Формат: MKV

Видео: MPEG-4 AVC, 11.7 Мбит/с, 1920 x 800 (2.400) at 23.976 fps

Аудио 1: DTS at 1510 Кбит/сек, 6 канала(ов), 48,0 КГц [Дубляж]
Аудио 2: DTS at 1510 Кбит/сек, 6 канала(ов), 48,0 КГц [Оригинал]
Раздача: Изображение


Изображение
MediaInfo

Общее
Уникальный идентификатор : 249891306892062249823323329158038828061 (0xBBFF50A8FCDCAD9CAEF07D50848A341D)
Полное имя : C:\Users\Домашний\Desktop\Sajlent Hill 2.2012.BDRip.1080p.[nntt].mkv
Формат : Matroska
Размер файла : 9,75 Гбайт
Продолжительность : 1 ч. 34 м.
Общий поток : 14,7 Мбит/сек
Название фильма : YiFan @ WiKi
Дата кодирования : UTC 2013-02-08 14:19:54
Программа кодирования : mkvmerge v3.0.0 ('Hang up your Hang-Ups') built on Dec 12 2009 15:20:35
Библиотека кодирования : libebml v0.7.9 + libmatroska v0.8.1

Видео
Идентификатор : 1
Формат : AVC
Формат/Информация : Advanced Video Codec
Профиль формата : High@L4.1
Параметр CABAC формата : Да
Параметр ReFrames формата : 5 кадры
Идентификатор кодека : V_MPEG4/ISO/AVC
Продолжительность : 1 ч. 34 м.
Битрейт : 11,7 Мбит/сек
Ширина : 1920 пикс.
Высота : 800 пикс.
Соотношение сторон : 2,40:1
Частота кадров : 23,976 кадр/сек
Цветовое пространство : YUV
Подвыборка цветности : 4:2:0
Битовая глубина : 8 бит
Тип развёртки : Прогрессивная
Бит/(Пиксели*Кадры) : 0.318
Размер потока : 7,55 Гбайт (77%)
Заголовок :
Библиотека кодирования : x264 core 129 r2230+696+36 4446aa2 tMod+MixAQ [8-bit@4:2:0 X86_64]
Настройки программы : cabac=1 / ref=5 / deblock=1:-3:-3 / analyse=0x3:0x133 / me=umh / subme=11 / psy=1 / fade_compensate=0.00 / psy_rd=1.05:0.10 / mixed_ref=1 / me_range=64 / chroma_me=1 / trellis=2 / 8x8dct=1 / cqm=0 / deadzone=21,11 / fast_pskip=0 / chroma_qp_offset=-3 / threads=12 / lookahead_threads=1 / sliced_threads=0 / nr=0 / decimate=1 / interlaced=0 / bluray_compat=0 / constrained_intra=0 / fgo=3 / bframes=10 / b_pyramid=2 / b_adapt=2 / b_bias=0 / direct=3 / weightb=1 / open_gop=0 / weightp=2 / keyint=600 / keyint_min=1 / scenecut=40 / intra_refresh=0 / rc=2pass / mbtree=0 / bitrate=11702 / ratetol=1.0 / qcomp=0.70 / qpmin=0 / qpmax=69 / qpstep=4 / cplxblur=20.0 / qblur=0.5 / ip_ratio=1.40 / pb_ratio=1.22 / aq=1 / aq-strength=0.95 / aq-sensitivity=10.00 / aq-ifactor=1.00 / aq-pfactor=1.00 / aq-bfactor=1.00 / aq2=0
Язык : English

Аудио #1
Идентификатор : 2
Формат : DTS
Формат/Информация : Digital Theater Systems
Идентификатор кодека : A_DTS
Продолжительность : 1 ч. 34 м.
Вид битрейта : Постоянный
Битрейт : 1510 Кбит/сек
Канал(ы) : 6 канала(ов)
Расположение каналов : Front: L C R, Side: L R, LFE
Частота : 48,0 КГц
Битовая глубина : 24 бит
Метод сжатия : С потерями
Размер потока : 1024 Мбайт (10%)
Язык : Russian

Аудио #2
Идентификатор : 3
Формат : DTS
Формат/Информация : Digital Theater Systems
Идентификатор кодека : A_DTS
Продолжительность : 1 ч. 34 м.
Вид битрейта : Постоянный
Битрейт : 1510 Кбит/сек
Канал(ы) : 6 канала(ов)
Расположение каналов : Front: L C R, Side: L R, LFE
Частота : 48,0 КГц
Битовая глубина : 24 бит
Метод сжатия : С потерями
Размер потока : 1024 Мбайт (10%)
Язык : English

Текст
Идентификатор : 4
Формат : UTF-8
Идентификатор кодека : S_TEXT/UTF8
Идентификатор кодека/Информация : UTF-8 Plain Text
Язык : Russian


Свернуть
Скриншоты

Изображение
Изображение
Изображение
Изображение
Изображение
Свернуть
_________________
Изображение
Изображение
Не в сети
Профиль  
 Добавлено: 2013-03-01 20:07 (спустя 20 дней)
Стаж: 7 лет 2 месяца
Сообщений: 30
Лайков: 1
3D или нет?
Не в сети
Профиль  
 Добавлено: 2013-03-08 12:45 (спустя 6 дней)
Аватара пользователя
Стаж: 6 лет 11 месяцев
Сообщений: 2
Спасибок: 182
фильм не в формате 3D
Не в сети
Профиль  
 Добавлено: 2013-03-11 19:12 (спустя 3 дня)
Аватара пользователя
Стаж: 7 лет 5 месяцев
Возраст: 34
Сообщений: 241
Спасибок: 1
Лайков: 2
Когда на Blu-ray ?
Не в сети
Профиль  
 Добавлено: 2013-03-18 18:36 (спустя 6 дней)
Стаж: 7 лет 7 месяцев
Сообщений: 60
Торрент кривой "Sаjlent hill"))
Не в сети
Профиль  
Начать новую темуОтветить на тему  [ Сообщений: 5 ] 
Вы не можете начинать темы
Вы не можете отвечать на сообщения
Вы не можете редактировать свои сообщения
Вы не можете удалять свои сообщения