Правила форума

  • В этом разделе создание новых тем Запрещено.
  • Для создания новых тем пользуйтесь Корневым разделом DVD и HD фильмы.
Начать новую темуОтветить на тему  [ Сообщений: 4 ] 
Торрент файл
Размер: 22.38 GB • Зарегистрирован: 3 года 10 месяцев • Статус: Проверено
Скачан: 149 раз • Желающих скачать: 0 • Поблагодарили: 53 раза
 Раздают: 0  |  0 KB/s  ]   Качают: 0  |  0 KB/s  ] 
 Полного источника не было 1 год 7 месяцев 
Сообщения
 Добавлено: 2013-02-02 17:38
Руководитель релиз-группы
Аватара пользователя
Стаж: 7 лет 5 месяцев
Возраст: 31
Сообщений: 3406
Спасибок: 46729
Лайков: 5
Изображение

Сайлент Хилл 2
Silent Hill: Revelation 3D


Год выпуска: 2012
Страна: Франция, США, Канада
Слоган: «В этот Хэллоуин 3D путешествие в ад»
Жанр: ужасы, триллер, детектив
Продолжительность: 01:34:46
Перевод: Профессиональный (полное дублирование) [лицензия]
Режиссер: Майкл Дж. Бассетт
Сценарий: Майкл Дж. Бассетт
Продюсер: Дон Кармоди, Сэмюэл Хадида, Хартли Горенштейн
Оператор: Максим Александр
Композитор: Джефф Дэнна, Акира Ямаока
В ролях: Эделейд Клеменс, Кит Харингтон, Дебора Кара Ангер, Мартин Донован, Малкольм МакДауэлл, Кэрри-Энн Мосс, Шон Бин, Рада Митчелл, Роберто Кампанелла, Эрин Питт, Питер Аутербридж, Джефферсон Браун
Бюджет: $20 000 000
Сборы в США: $17 529 157
Сборы в России: $13 141 854
Сборы в мире: $50 622 655
Описание: Хизер терзается ночными кошмарами с одиннадцатилетнего возраста и вынуждена со своим отцом постоянно менять место жительства, скрываясь от таинственных сил. Накануне своего восемнадцатого дня рождения Хизер, вернувшись домой, обнаруживает, что её отец исчез. Единственное, что она нашла дома - нарисованный на стене оккультный символ с надписью «отправляйся в Сайлент Хилл».
Изображение
MPAA: Изображение
Мировая премьера: 25 октября 2012
Релиз на DVD: 19 февраля 2013, «West Video»
Релиз на Blu-ray: 19 февраля 2013, «West Video»
Релиз: Изображение Раздача группы: Изображение
Качество: BD-Remux, 1080p
Формат: MKV
Видео: MPEG-4 AVC, 32.1 Мбит/с, 1920x1080
Аудио: AC3; 448 Kbps; CBR; 6 ch Russian
Аудио: AC3; 640 Kbps; CBR; 6 ch English
Субтитры: английские
mediainfo
Format : Matroska
Format version : Version 4 / Version 2
File size : 22.4 GiB
Duration : 1h 34mn
Overall bit rate mode : Variable
Overall bit rate : 33.8 Mbps
Movie name : PiratCa - HDTracker
Encoded date : UTC 2013-02-02 06:38:57
Writing application : mkvmerge v6.0.0 ('Coming Up For Air') built on Jan 20 2013 09:52:00
Writing library : libebml v1.3.0 + libmatroska v1.4.0

Video
ID : 1
Format : AVC
Format/Info : Advanced Video Codec
Format profile : High@L4.1
Format settings, CABAC : Yes
Format settings, ReFrames : 4 frames
Codec ID : V_MPEG4/ISO/AVC
Duration : 1h 34mn
Bit rate mode : Variable
Bit rate : 32.1 Mbps
Maximum bit rate : 35.0 Mbps
Width : 1 920 pixels
Height : 1 080 pixels
Display aspect ratio : 16:9
Frame rate : 23.976 fps
Color space : YUV
Chroma subsampling : 4:2:0
Bit depth : 8 bits
Scan type : Progressive
Bits/(Pixel*Frame) : 0.645
Stream size : 21.2 GiB (95%)
Language : English
Default : Yes
Forced : No

Audio #1
ID : 2
Format : AC-3
Format/Info : Audio Coding 3
Mode extension : CM (complete main)
Format settings, Endianness : Big
Codec ID : A_AC3
Duration : 1h 34mn
Bit rate mode : Constant
Bit rate : 448 Kbps
Channel(s) : 6 channels
Channel positions : Front: L C R, Side: L R, LFE
Sampling rate : 48.0 KHz
Bit depth : 16 bits
Compression mode : Lossy
Stream size : 304 MiB (1%)
Title : Dub
Language : Russian
Default : Yes
Forced : Yes

Audio #2
ID : 3
Format : AC-3
Format/Info : Audio Coding 3
Mode extension : CM (complete main)
Format settings, Endianness : Big
Codec ID : A_AC3
Duration : 1h 34mn
Bit rate mode : Constant
Bit rate : 640 Kbps
Channel(s) : 6 channels
Channel positions : Front: L C R, Side: L R, LFE
Sampling rate : 48.0 KHz
Bit depth : 16 bits
Compression mode : Lossy
Stream size : 434 MiB (2%)
Title : Original
Language : English
Default : No
Forced : No

Text
ID : 4
Format : PGS
Muxing mode : zlib
Codec ID : S_HDMV/PGS
Codec ID/Info : The same subtitle format used on BDs/HD-DVDs
Language : English
Default : Yes
Forced : No

Menu
00:00:00.000 : en:00:00:00.000
00:04:41.490 : en:00:04:41.490
00:11:38.531 : en:00:11:38.531
00:17:09.612 : en:00:17:09.612
00:21:29.497 : en:00:21:29.497
00:24:04.485 : en:00:24:04.485
00:27:59.928 : en:00:27:59.928
00:31:28.011 : en:00:31:28.011
00:35:24.080 : en:00:35:24.080
00:40:50.239 : en:00:40:50.239
00:46:50.474 : en:00:46:50.474
00:50:35.282 : en:00:50:35.282
00:53:56.024 : en:00:53:56.024
00:57:47.673 : en:00:57:47.673
01:03:52.829 : en:01:03:52.829
01:06:30.445 : en:01:06:30.445
01:11:29.285 : en:01:11:29.285
01:16:35.299 : en:01:16:35.299
01:23:00.100 : en:01:23:00.100
01:27:21.069 : en:01:27:21.069
Свернуть
"Знаете ли Вы, что..."
  • На роль Хизер рассматривалась Сирша Ронан.
  • В основу сценария фильма положен сюжет компьютерной игры «Silent Hill 3».
Свернуть
Скриншоты

Изображение

Изображение

Изображение
Свернуть
Не в сети
Профиль  
 Добавлено: 2013-02-02 18:58 (спустя 1 час 19 минут)
Аватара пользователя
Стаж: 7 лет 3 месяца
Возраст: 24
Сообщений: 190
Спасибок: 499
Лайков: 7
В 3D ?
_________________
Изображение
Не в сети
Профиль  
 Добавлено: 2013-02-02 20:54 (спустя 1 час 55 минут)
Руководитель релиз-группы
Аватара пользователя
Стаж: 7 лет 5 месяцев
Возраст: 31
Сообщений: 3406
Спасибок: 46729
Лайков: 5
MazdaRX
в 2D
Не в сети
Профиль  
 Добавлено: 2013-03-11 19:13 (спустя 1 месяц 8 дней)
Аватара пользователя
Стаж: 7 лет 5 месяцев
Возраст: 34
Сообщений: 241
Спасибок: 1
Лайков: 2
Когда на Blu-ray ?
Не в сети
Профиль  
Начать новую темуОтветить на тему  [ Сообщений: 4 ] 
Вы не можете начинать темы
Вы не можете отвечать на сообщения
Вы не можете редактировать свои сообщения
Вы не можете удалять свои сообщения