Правила форума

  • В этом разделе создание новых тем Запрещено.
  • Для создания новых тем пользуйтесь Корневым разделом DVD и HD фильмы.
Начать новую темуОтветить на тему  [ Сообщений: 3 ] 
Торрент файл
Размер: 4.66 GB • Зарегистрирован: 3 года 10 месяцев • Статус: Проверено
Скачан: 52 раза • Желающих скачать: 0 • Поблагодарили: 15 раз
 Раздают: 0  |  0 KB/s  ]   Качают: 0  |  0 KB/s  ] 
 Полного источника не было 7 дней 
Сообщения
 Добавлено: 2013-02-02 22:26
Аватара пользователя
Стаж: 5 лет 4 месяца
Возраст: 26
Сообщений: 1658
Спасибок: 45808
Лайков: 69
Сайлент Хилл 2
Silent Hill: Revelation 3D


«В этот Хэллоуин 3D путешествие в ад»

Изображение
Год выпуска: 2012
Страна: ИзображениеИзображениеИзображение
Жанр: Ужасы, триллер, детектив
Продолжительность: 01:34:39
Перевод: Дублированный (Лицензия)

Режиссёр: Майкл Дж. Бассетт

Сценарий: Майкл Дж. Бассетт

Продюсер: Дон Кармоди, Сэмюэл Хадида, Хартли Горенштейн

Оператор: Максим Александр

Композитор: Джефф Дэнна, Акира Ямаока

Xудожник: Алиша Кивон, Энтони А. Ианни, Венди Патридж

В ролях: Эделейд Клеменс , Кит Харингтон, Дебора Кара Ангер, Мартин Донован, Малкольм МакДауэлл, Кэрри-Энн Мосс, Шон Бин, Рада Митчелл, Роберто Кампанелла, Эрин Питт, Питер Аутербридж, Джефферсон Браун, Милтон Барнс, Хизер Маркс, Рэйчел Селлан, Мишель С. Фуко, Арлин Дункан, Джейсон Бест, Чад Камиллери, Сергей Шпаковский, Лоуренс Дикисон, Джеймс Киршнер, Джеки Лаи, Тиг Фонг, Дин Копков, Бойд Бэнкс, Конрад Бергшнейдер, Даррен Джозеф, Питер Шолир, Крис Площански, Джеймс Коллинз, Кэсси Оуок.


Описание: Хизер терзается ночными кошмарами с одиннадцатилетнего возраста и вынуждена со своим отцом постоянно менять место жительства, скрываясь от таинственных сил. Накануне своего восемнадцатого дня рождения Хизер, вернувшись домой, обнаруживает, что её отец исчез. Единственное, что она нашла дома — нарисованный на стене оккультный символ с надписью «отправляйся в Сайлент-Хилл».



Изображение



Бюджет: $20 000 000
Сборы в США: $17 529 157
Сборы в России: $13 141 854

Сборы в мире: $50 622 655
Мировая премьера:25 октября 2012.
Российский прокат:25 октября 2012, «West»3D
Релиз на DVD:19 февраля 2013, «West Video».
Релиз на Blu-Ray:19 февраля 2013, «West Video».

Качество: BDRip (720p)
Формат: Matroska
Видео: MPEG-4 AVC, 5086 Кбит/с, 1280x536
Аудио: Русский (АС3, 6 ch, 448 Кбит/с), английский (DTS, 6 ch, 1510 Кбит/с)



MediaInfo
Общее
Уникальный идентификатор : 216176776557531753924888568289626634325 (0xA2A221FA49761C099F6877768A6F3855)
Полное имя : D:\Фильмы и сериалы\Sajlent.Hill.2.2012.x264.BDRip.720p.mkv
Формат : Matroska
Версия формата : Version 2
Размер файла : 4,66 Гбайт
Продолжительность : 1 ч. 34 м.
Общий поток : 7047 Кбит/сек
Название фильма : |◄◄| ιι |Alexandr 80| ► | ■ |►►|
Дата кодирования : UTC 2013-02-01 08:13:10
Программа кодирования : mkvmerge v4.3.0 ('Escape from the Island') сборка от Sep 5 2010 10:30:51
Библиотека кодирования : libebml v1.0.0 + libmatroska v1.0.0

Видео
Идентификатор : 1
Формат : AVC
Формат/Информация : Advanced Video Codec
Профиль формата : High@L4.1
Параметр CABAC формата : Да
Параметр ReFrames формата : 5 кадров
Идентификатор кодека : V_MPEG4/ISO/AVC
Продолжительность : 1 ч. 34 м.
Битрейт : 5086 Кбит/сек
Ширина : 1280 пикселей
Высота : 536 пикселей
Соотношение сторон : 2,40:1
Режим частоты кадров : Постоянный
Частота кадров : 23,976 кадра/сек
Цветовое пространство : YUV
Субдискретизация насыщенности : 4:2:0
Битовая глубина : 8 бит
Тип развёртки : Прогрессивная
Бит/(Пиксели*Кадры) : 0.309
Размер потока : 3,27 Гбайт (70%)
Библиотека кодирования : x264 core 129 r2245 bc13772
Настройки программы : cabac=1 / ref=5 / deblock=1:0:0 / analyse=0x3:0x133 / me=umh / subme=7 / psy=1 / psy_rd=1.00:0.00 / mixed_ref=1 / me_range=16 / chroma_me=1 / trellis=1 / 8x8dct=1 / cqm=0 / deadzone=21,11 / fast_pskip=0 / chroma_qp_offset=-2 / threads=12 / lookahead_threads=2 / sliced_threads=0 / nr=0 / decimate=1 / interlaced=0 / bluray_compat=0 / constrained_intra=0 / bframes=3 / b_pyramid=2 / b_adapt=1 / b_bias=0 / direct=1 / weightb=1 / open_gop=0 / weightp=2 / keyint=250 / keyint_min=23 / scenecut=40 / intra_refresh=0 / rc_lookahead=40 / rc=2pass / mbtree=1 / bitrate=5086 / ratetol=1.0 / qcomp=0.60 / qpmin=0 / qpmax=69 / qpstep=4 / cplxblur=20.0 / qblur=0.5 / ip_ratio=1.40 / aq=1:1.00
Язык : English
Default : Да
Forced : Нет

Аудио #1
Идентификатор : 2
Формат : AC-3
Формат/Информация : Audio Coding 3
Расширение режима : CM (complete main)
Параметр Endianness формата : Big
Идентификатор кодека : A_AC3
Продолжительность : 1 ч. 34 м.
Вид битрейта : Постоянный
Битрейт : 448 Кбит/сек
Каналы : 6 каналов
Расположение каналов : Front: L C R, Side: L R, LFE
Частота : 48,0 КГц
Битовая глубина : 16 бит
Метод сжатия : С потерями
Задержка видео : 24 мс.
Размер потока : 303 Мбайт (6%)
Язык : Russian
Default : Да
Forced : Нет

Аудио #2
Идентификатор : 3
Формат : DTS
Формат/Информация : Digital Theater Systems
Режим : 16
Параметр Endianness формата : Big
Идентификатор кодека : A_DTS
Продолжительность : 1 ч. 34 м.
Вид битрейта : Постоянный
Битрейт : 1509 Кбит/сек
Каналы : 6 каналов
Расположение каналов : Front: L C R, Side: L R, LFE
Частота : 48,0 КГц
Битовая глубина : 24 бит
Метод сжатия : С потерями
Задержка видео : 11 мс.
Размер потока : 1022 Мбайт (21%)
Язык : English
Default : Нет
Forced : Нет

Текст #1
Идентификатор : 4
Формат : UTF-8
Идентификатор кодека : S_TEXT/UTF8
Идентификатор кодека/Информация : UTF-8 Plain Text
Язык : Russian
Default : Нет
Forced : Нет

Текст #2
Идентификатор : 5
Формат : UTF-8
Идентификатор кодека : S_TEXT/UTF8
Идентификатор кодека/Информация : UTF-8 Plain Text
Заголовок : Full
Язык : English
Default : Нет
Forced : Нет

Текст #3
Идентификатор : 6
Формат : UTF-8
Идентификатор кодека : S_TEXT/UTF8
Идентификатор кодека/Информация : UTF-8 Plain Text
Заголовок : SDH
Язык : English
Default : Нет
Forced : Нет

Меню
00:00:00.000 : en:00:00:00.000
00:04:41.490 : en:00:04:41.490
00:11:38.531 : en:00:11:38.531
00:17:09.612 : en:00:17:09.612
00:21:29.497 : en:00:21:29.497
00:24:04.485 : en:00:24:04.485
00:27:59.928 : en:00:27:59.928
00:31:28.011 : en:00:31:28.011
00:35:24.080 : en:00:35:24.080
00:40:50.239 : en:00:40:50.239
00:46:50.474 : en:00:46:50.474
00:50:35.282 : en:00:50:35.282
00:53:56.024 : en:00:53:56.024
00:57:47.673 : en:00:57:47.673
01:03:52.829 : en:01:03:52.829
01:06:30.445 : en:01:06:30.445
01:11:29.285 : en:01:11:29.285
01:16:35.299 : en:01:16:35.299
01:23:00.100 : en:01:23:00.100
01:27:21.069 : en:01:27:21.069

Свернуть

Трейлер
Свернуть

Скриншоты
Изображение
Изображение
Изображение
Свернуть
_________________
S.T.A.L.K.E.R.: Lost Alpha
Не в сети
Профиль  
 Добавлено: 2013-02-03 00:32 (спустя 2 часа 6 минут)
Аватара пользователя
Стаж: 8 лет 1 месяц
Возраст: 21
Сообщений: 42
Спасибок: 30
Кто знает когда лучше качество будет?)
_________________
Изображение
Не в сети
Профиль  
 Добавлено: 2013-03-11 19:12 (спустя 1 месяц 8 дней)
Аватара пользователя
Стаж: 7 лет 5 месяцев
Возраст: 34
Сообщений: 241
Спасибок: 1
Лайков: 2
Когда на Blu-ray ?
Не в сети
Профиль  
Начать новую темуОтветить на тему  [ Сообщений: 3 ] 
Вы не можете начинать темы
Вы не можете отвечать на сообщения
Вы не можете редактировать свои сообщения
Вы не можете удалять свои сообщения