Правила форума

  • В этом разделе создание новых тем Запрещено.
  • Для создания новых тем пользуйтесь Корневым разделом DVD и HD фильмы.
Начать новую темуОтветить на тему  [ Сообщений: 3 ] 
Торрент файл
Размер: 7.97 GB • Зарегистрирован: 4 года 3 месяца • Статус: Проверено
Скачан: 18 раз • Желающих скачать: 0 • Поблагодарили: 7 раз
 Раздают: 0  |  0 KB/s  ]   Качают: 0  |  0 KB/s  ] 
 Полного источника не было 2 года 10 месяцев 
Сообщения
 Добавлено: 2012-08-27 16:47
Модератор
Аватара пользователя
Стаж: 8 лет 7 месяцев
Сообщений: 4965
Спасибок: 110254
Лайков: 18
Изображение

Счастливчик / The Lucky One


Год выпуска: 2012
Страна: США

Жанр: драма, мелодрама
Продолжительность: 01:40:53
Перевод: Профессиональный (полное дублирование)
Субтитры: Английские
Режиссер: Скотт Хикс
Сценарий: Уилл Феттерс, Николас Спаркс
Продюсер: Денис Ди Нови, Кевин МакКормик, Брюс Берман, Элисон Гринспен, Керри Хейсен
Оператор: Алар Кивило
Композитор: Марк Айшем, Хэл Линдес

В ролях: Зак Эфрон, Тейлор Шиллинг, Блайт Даннер, Райли Стюарт, Джей Р. Фергюсон, Адам ЛеФевр, Роберт Хэйес, Джо Крест, Расселл Дархэм Комегис, Шарон Моррис, Энн МакКензи, Кендал Е. Таттл
Дублёры: Евгений Вальц, Наталья Фищук, Ирина Пономарева, Михаил Песоцкий, Денис Беспалый, Алексей Борзунов, Александр Дасевич, Василий Дахненко, Михаил Лукашов, Галина Казакова, Иван Жарков
Бюджет: $25 000 000
Сборы в США: $60 457 138
Сборы в России: $963 588
Сборы в мире: $91 557 138

Мировая премьера: 19 апреля 2012
Описание: Морской пехотинец Логан Тибо сумел остаться в живых после трех военных миссий в Ираке. Своим талисманом он считает фото, которое всегда носит с собой - на нем совершенно незнакомая ему женщина. По возвращении в Северную Каролину Тибо решает разыскать ее.
Изображение 6.1/10 (10,960 users) Изображение 7.010 (2,650)
MPAA: Изображение - Детям до 13 лет просмотр не желателен
"NFO"
Format : Matroska
Format version : Version 2
File size : 7.97 GiB
Duration : 1h 40mn
Overall bit rate : 11.3 Mbps
Movie name : ELEKTRO-NFSMW
Encoded date : UTC 2012-08-27 13:12:39
Writing application : mkvmerge v2.9.7 ('Tenderness') built on Jul 13 2009 22:24:14
Writing library : libebml v0.7.7 + libmatroska v0.8.1

Video
ID : 1
Format : AVC
Format/Info : Advanced Video Codec
Format profile : High@L4.1
Format settings, CABAC : Yes
Format settings, ReFrames : 5 frames
Codec ID : V_MPEG4/ISO/AVC
Duration : 1h 40mn
Bit rate : 9 348 Kbps
Width : 1 920 pixels
Height : 800 pixels
Display aspect ratio : 2.40:1
Frame rate : 23.976 fps
Color space : YUV
Chroma subsampling : 4:2:0
Bit depth : 8 bits
Scan type : Progressive
Bits/(Pixel*Frame) : 0.254
Stream size : 6.43 GiB (81%)
Writing library : x264 core 125 r2208 d9d2288
Encoding settings : cabac=1 / ref=5 / deblock=1:0:0 / analyse=0x3:0x113 / me=umh / subme=8 / psy=1 / psy_rd=1.00:0.00 / mixed_ref=1 / me_range=16 / chroma_me=1 / trellis=1 / 8x8dct=1 / cqm=0 / deadzone=21,11 / fast_pskip=1 / chroma_qp_offset=-2 / threads=12 / lookahead_threads=2 / sliced_threads=0 / nr=0 / decimate=1 / interlaced=0 / bluray_compat=0 / constrained_intra=0 / bframes=3 / b_pyramid=2 / b_adapt=2 / b_bias=0 / direct=3 / weightb=1 / open_gop=0 / weightp=2 / keyint=240 / keyint_min=24 / scenecut=40 / intra_refresh=0 / rc_lookahead=50 / rc=2pass / mbtree=1 / bitrate=9348 / ratetol=1.0 / qcomp=0.60 / qpmin=0 / qpmax=69 / qpstep=4 / cplxblur=20.0 / qblur=0.5 / ip_ratio=1.40 / aq=1:1.00
Language : English
Default : Yes
Forced : No

Audio #1
ID : 2
Format : AC-3
Format/Info : Audio Coding 3
Mode extension : CM (complete main)
Codec ID : A_AC3
Duration : 1h 40mn
Bit rate mode : Constant
Bit rate : 448 Kbps
Channel(s) : 6 channels
Channel positions : Front: L C R, Side: L R, LFE
Sampling rate : 48.0 KHz
Bit depth : 16 bits
Compression mode : Lossy
Stream size : 323 MiB (4%)
Title : 48 kHz, AC3 Dolby Digital, 3/2 (L,C,R,l,r) + LFE ch, ~448 kbps
Language : Russian
Default : Yes
Forced : No

Audio #2
ID : 3
Format : DTS
Format/Info : Digital Theater Systems
Codec ID : A_DTS
Duration : 1h 40mn
Bit rate mode : Constant
Bit rate : 1 510 Kbps
Channel(s) : 6 channels
Channel positions : Front: L C R, Side: L R, LFE
Sampling rate : 48.0 KHz
Bit depth : 24 bits
Compression mode : Lossy
Delay relative to video : 22ms
Stream size : 1.06 GiB (13%)
Language : English
Default : No
Forced : No

Text
ID : 4
Format : UTF-8
Codec ID : S_TEXT/UTF8
Codec ID/Info : UTF-8 Plain Text
Language : English
Default : Yes
Forced : No

Menu
00:00:00.000 : en:00:00:00.000
00:10:27.585 : en:00:10:27.585
00:20:08.791 : en:00:20:08.791
00:28:47.476 : en:00:28:47.476
00:39:55.602 : en:00:39:55.602
00:50:50.047 : en:00:50:50.047
01:00:29.000 : en:01:00:29.000
01:09:19.405 : en:01:09:19.405
01:20:21.316 : en:01:20:21.316
01:29:14.891 : en:01:29:14.891
01:37:16.164 : en:01:37:16.164
Свернуть

Качество: BDRip 1080p
Формат: AVI

Видео: MPEG-4 AVC, 9348 Кбит/с, 1920x800
Аудио №1: Russian, 48 kHz, AC3 Dolby Digital, 3/2 (L,C,R,l,r) + LFE ch, ~448 kbps
Аудио №2: English, DTS, 1510 kb/s (6 ch)
"Знаете ли Вы, что..."
  • Тейлор Шиллинг обошла Эбби Корниш и Кэти Кэссиди в борьбе за главную женскую роль.
  • Кинотеатры на военных объектах раньше всех получили возможность демонстрировать фильм.
  • Пианино Бет, которое по фильму явно не использовалось в течение длительного времени, оказалось идеально настроенным, когда Логан стал играть на нём. В реальной жизни пианино не держит свой строй так долго.
Свернуть

Дополнительно: Сохранены оригинальные чаптеры как на Blu-ray.

"Скриншоты"

Изображение

Изображение

Изображение

Свернуть
_________________
Изображение Изображение Изображение
Билайн / АДС добавляйте ретрекер, чтобы качать на скорости 100 Мбит/с
Cкрытый текст
Изображение
Свернуть
Не в сети
Профиль  
 Добавлено: 2012-08-27 17:31 (спустя 44 минуты)
Стаж: 7 лет
Сообщений: 37
Ничаво
Не в сети
Профиль  
 Добавлено: 2012-08-27 18:51 (спустя 1 час 19 минут)
Аватара пользователя
Стаж: 5 лет 11 месяцев
Возраст: 37
Сообщений: 38
:co_ol:
Не в сети
Профиль  
Начать новую темуОтветить на тему  [ Сообщений: 3 ] 
Вы не можете начинать темы
Вы не можете отвечать на сообщения
Вы не можете редактировать свои сообщения
Вы не можете удалять свои сообщения