Правила форума

  • В этом разделе создание новых тем Запрещено.
  • Для создания новых тем пользуйтесь Корневым разделом DVD и HD фильмы.
Начать новую темуОтветить на тему  [ Сообщений: 2 ] 
Торрент файл
Размер: 11.88 GB • Зарегистрирован: 6 лет 2 месяца • Статус: Проверено
Скачан: 90 раз • Желающих скачать: 0 • Поблагодарили: 17 раз
 Раздают: 0  |  0 KB/s  ]   Качают: 0  |  0 KB/s  ] 
 Полного источника не было 3 месяца 10 дней 
Сообщения
 Добавлено: 2010-09-24 15:30
Инквизитор
Аватара пользователя
Стаж: 8 лет 8 месяцев
Сообщений: 3753
Спасибок: 28359
Лайков: 9
Изображение

Счастливое число Слевина
Lucky Number Slevin

Год выпуска: 2006
Страна: Германия, США
Слоган: «Не тот номер. Не в том месте. Не в то время.»
Жанр: Триллер, криминал
Продолжительность: 01:50:07
Перевод:
  • Профессиональный (полное дублирование)
  • Профессиональный (многоголосый, закадровый)
  • Авторский (двухголосый, закадровый) |П.Гланц и И.Королёва|
  • Автроский (одноголосый, закадровый) |Немахов|
  • Автроский (одноголосый, закадровый) |Гаврилов|

+ Английский, Английский (Josh Hartnett & Lucy Liu comments), Английский (Paul McGuigan comments)

Субтитры: Русские, Английские

Режиссер: Пол МакГиган
Сценарий: Джейсон Смилович
Продюсер: Джейн Барклай, Роберт Кравис, Ханна Лидер, ...
Оператор: Питер Сова
Композитор: Джошуа Ральф


В ролях: Джош Хартнет, Брюс Уиллис, Люси Лью, Морган Фриман, Бен Кингсли, Майкл Рубенфильд, Питер Отербридж, Стэнли Туччи, Кевин Чамберлен, Дориан Миссик, Майкелти Уильямсон, Скотт Гибсон, Дэниэл Кэш, Дмитрий Чеповецкий, Сэм Джагер, Дэнни Айелло, Оливер Дэвис, Кори Столл, Ховард Джером, Дж.Д. Джексон, Дженнифер Миллер

Описание: Слевину не везет. Дом опечатан, девушка ушла к другому… Его друг Ник уезжает из Нью-Йорка и предлагает Слевину пожить в пустой квартире. В это время крупный криминальный авторитет по прозвищу Босс хочет рассчитаться со своим бывшим партнером Рабби за убийство сына и в отместку «заказать» его наследника.




Изображение
Изображение
Топ 250: 80
MPAA Изображение
Изображение
Сборы в США..... $22 495 466
Сборы в мире..... $56 308 881
Сборы в России..... $724 216
DVD в США..... $15 847 461
Премьера (мир)..... 24 февраля 2006
Премьера (РФ)..... 13 апреля 2006, «Парадиз»
Релиз на DVD..... 3 ноября 2009, 25 декабря 2008, «ПАРАДИЗ-ВC»

Рип: HiDt Раздача группы: Изображение
Качество: BDRip
Формат: MKV
Видео: x264 (DXVA), 1920x800(OAR), 10.2 Mbps, 23.976 fps
Аудио:

Русский: 48 kHz, AC3, 3/2 (L,C,R,l,r) + LFE ch, ~640.00 kbps avg |Дубляж|
Русский: 48 kHz, AC3, 3/2 (L,C,R,l,r) + LFE ch, ~448.00 kbps avg |Многоголосый, закадровый|
Русский: 48 kHz, DTS, 3/2 (L,C,R,l,r) + LFE ch, ~1536.00 kbps avg |П.Гланц и И.Королёва|
Русский: 48 kHz, DTS, 3/2 (L,C,R,l,r) + LFE ch, ~768.00 kbps avg |Немахов|
Русский: 48 kHz, DTS, 3/2 (L,C,R,l,r) + LFE ch, ~768.00 kbps avg |Гаврилов|
Английский: 48 kHz, DTS, 3/2 (L,C,R,l,r) + LFE ch, ~768.00 kbps avg
Английский: 48 kHz, AC3, 2 (L,R) ch, ~192.00 kbps avs |Josh Hartnett & Lucy Liu comments|
Английский: 48 kHz, AC3, 2 (L,R) ch, ~192.00 kbps av |Paul McGuigan comments|

MediaInfo
H:\Фильмы\Счастливое число Слевина [720p]\Счастливое число Слевина [1080p].mkv
General
Complete name : H:\Фильмы\Счастливое число Слевина [720p]\Счастливое число Слевина [1080p].mkv
Format : Matroska
File size : 11.9 GiB
Duration : 1h 50mn
Overall bit rate : 15.4 Mbps
Movie name : Lucky.Number.Slevin.2006.720p.HDDVD.x264-ESiR
Encoded date : UTC 2010-04-04 09:45:08
Writing application : mkvmerge v2.4.2 ('Oh My God') built on Jan 18 2009 17:30:28
Writing library : libebml v0.7.7 + libmatroska v0.8.1
Cover : Yes / Yes / Yes / Yes / Yes / Yes / Yes / Yes / Yes
Video #7
ID : 7
Format : AVC
Format/Info : Advanced Video Codec
Format profile : High@L4.1
Format settings, CABAC : Yes
Format settings, ReFrames : 4 frames
Muxing mode : Container profile=Unknown@4.1
Codec ID : V_MPEG4/ISO/AVC
Duration : 1h 50mn
Bit rate : 9 874 Kbps
Nominal bit rate : 10.2 Mbps
Width : 1 920 pixels
Height : 800 pixels
Display aspect ratio : 2.40:1
Frame rate : 23.976 fps
Resolution : 8 bits
Colorimetry : 4:2:0
Scan type : Progressive
Bits/(Pixel*Frame) : 0.268
Stream size : 7.59 GiB (64%)
Writing library : x264 core 65 r1040M 1591275
Encoding settings : cabac=1 / ref=4 / deblock=1:-3:-3 / analyse=0x3:0x113 / me=umh / subme=9 / psy_rd=1.0:0.0 / mixed_ref=1 / me_range=24 / chroma_me=1 / trellis=1 / 8x8dct=1 / cqm=0 / deadzone=21,11 / chroma_qp_offset=-4 / threads=8 / nr=0 / decimate=1 / mbaff=0 / bframes=3 / b_pyramid=1 / b_adapt=2 / b_bias=0 / direct=1 / wpredb=1 / keyint=250 / keyint_min=25 / scenecut=40(pre) / rc=2pass / bitrate=10172 / ratetol=1.0 / qcomp=0.60 / qpmin=10 / qpmax=51 / qpstep=4 / cplxblur=20.0 / qblur=0.5 / vbv_maxrate=50000 / vbv_bufsize=40000 / ip_ratio=1.40 / pb_ratio=1.30 / aq=1:0.80 / zones=151700,158424,q=2
Language : English
Audio #1
ID : 1
Format : AC-3
Format/Info : Audio Coding 3
Codec ID : A_AC3
Duration : 1h 50mn
Bit rate mode : Constant
Bit rate : 448 Kbps
Channel(s) : 6 channels
Channel positions : Front: L C R, Surround: L R, LFE
Sampling rate : 48.0 KHz
Video delay : 2s 0ms
Stream size : 353 MiB (3%)
Title : АС3 5.1 640 Kbps (Дубляж)
Language : Russian
Audio #2
ID : 2
Format : AC-3
Format/Info : Audio Coding 3
Codec ID : A_AC3
Duration : 1h 50mn
Bit rate mode : Constant
Bit rate : 640 Kbps
Channel(s) : 6 channels
Channel positions : Front: L C R, Surround: L R, LFE
Sampling rate : 48.0 KHz
Video delay : 2s 0ms
Stream size : 505 MiB (4%)
Title : АС3 5.1 448 Kbps (Многоголосый, закадровый)
Language : Russian
Audio #3
ID : 3
Format : DTS
Format/Info : Digital Theater Systems
Codec ID : A_DTS
Duration : 1h 50mn
Bit rate mode : Constant
Bit rate : 1 510 Kbps
Channel(s) : 6 channels
Channel positions : Front: L C R, Surround: L R, LFE
Sampling rate : 48.0 KHz
Resolution : 24 bits
Stream size : 1.16 GiB (10%)
Title : DTS 5.1 1536 Kbps (Гланц и Королёва)
Language : Russian
Audio #4
ID : 4
Format : DTS
Format/Info : Digital Theater Systems
Codec ID : A_DTS
Duration : 1h 50mn
Bit rate mode : Constant
Bit rate : 755 Kbps
Channel(s) : 6 channels
Channel positions : Front: L C R, Surround: L R, LFE
Sampling rate : 48.0 KHz
Resolution : 24 bits
Stream size : 595 MiB (5%)
Title : DTS 5.1 768 Kbps (Немахов)
Language : Russian
Audio #5
ID : 5
Format : DTS
Format/Info : Digital Theater Systems
Codec ID : A_DTS
Duration : 1h 50mn
Bit rate mode : Constant
Bit rate : 755 Kbps
Channel(s) : 6 channels
Channel positions : Front: L C R, Surround: L R, LFE
Sampling rate : 48.0 KHz
Resolution : 24 bits
Stream size : 595 MiB (5%)
Title : DTS 5.1 768 Kbps (Гаврилов)
Language : Russian
Audio #8
ID : 8
Format : DTS
Format/Info : Digital Theater Systems
Codec ID : A_DTS
Duration : 1h 50mn
Bit rate mode : Constant
Bit rate : 755 Kbps
Channel(s) : 6 channels
Channel positions : Front: L C R, Surround: L R, LFE
Sampling rate : 48.0 KHz
Resolution : 16 bits
Stream size : 595 MiB (5%)
Title : DTS 5.1 1536 Kbps
Language : English
Audio #9
ID : 9
Format : AC-3
Format/Info : Audio Coding 3
Codec ID : A_AC3
Duration : 1h 50mn
Bit rate mode : Constant
Bit rate : 192 Kbps
Channel(s) : 2 channels
Channel positions : L R
Sampling rate : 48.0 KHz
Stream size : 151 MiB (1%)
Title : Commentary #1
Language : English
Audio #10
ID : 10
Format : AC-3
Format/Info : Audio Coding 3
Codec ID : A_AC3
Duration : 1h 50mn
Bit rate mode : Constant
Bit rate : 192 Kbps
Channel(s) : 2 channels
Channel positions : L R
Sampling rate : 48.0 KHz
Stream size : 151 MiB (1%)
Title : Commentary #2
Text #6
ID : 6
Format : UTF-8
Codec ID : S_TEXT/UTF8
Codec ID/Info : UTF-8 Plain Text
Language : Russian
Text #11
ID : 11
Format : ASS
Codec ID : S_TEXT/ASS
Codec ID/Info : Advanced Sub Station Alpha
Language : English
Свернуть

Знаете ли вы, что...
* Съемки проходили в Монреале и Нью-Йорке.
* В кинопрокате Австралии фильм вышел под названием «The wrong man».
* В то время, как Джейсон Смилович писал в Нью-Йорке сценарий, Джош Хартнетт был его соседом. В начале фильма Слевин долго носит полотенце вокруг талии, это обусловлено тем, что сам Смилович часто видел Харнетта в таком виде. К тому же по его мнению эта деталь сделала образ Слевина более уязвимым.
*В офисе коронера можно заметить рентгеновский снимок руки. Рука принадлежит режиссеру Полу МакГигану.
*В сцене, где Линдси возвращается в квартиру Слевина и видит его голым, реакция Люси Лью настоящая. Перед съемкой этого эпизода Джош Хартнетт не предупредил актрису о том, что все будет «по-настоящему».
Свернуть
Скриншоты


Изображение

Изображение

Изображение

Изображение

Изображение

Изображение

Изображение

Свернуть
Не в сети
Профиль  
 Добавлено: 2010-09-24 16:09 (спустя 38 минут)
Аватара пользователя
Стаж: 6 лет 11 месяцев
Сообщений: 18045
Спасибок: 6236
Лайков: 1
Хорошее кино. Похож на фильм Семь.
Не в сети
Профиль  
Начать новую темуОтветить на тему  [ Сообщений: 2 ] 
Вы не можете начинать темы
Вы не можете отвечать на сообщения
Вы не можете редактировать свои сообщения
Вы не можете удалять свои сообщения