Правила форума

  • В этом разделе создание новых тем Запрещено.
  • Для создания новых тем пользуйтесь Корневым разделом DVD и HD фильмы.
Начать новую темуОтветить на тему  [ Сообщений: 6 ] 
Торрент файл
Размер: 8.83 GB • Зарегистрирован: 5 лет • Статус: Проверено
Скачан: 417 раз • Желающих скачать: 0 • Поблагодарили: 71 раз
 Раздают: 0  |  0 KB/s  ]   Качают: 0  |  0 KB/s  ] 
 Полного источника не было 8 месяцев 
Сообщения
 Добавлено: 2011-11-05 00:03
Top-releaser
Стаж: 7 лет 3 месяца
Возраст: 33
Сообщений: 409
Спасибок: 6400
Лайков: 6
Секс по дружбе / Friends with Benefits

Изображение
Год выпуска: 2011
Страна: США
Жанр: драма, мелодрама, комедия
Продолжительность: 01:49:25
Перевод: Профессиональный (дублирование)

Режиссер: Уилл Глак (Will Gluck)
Сценарий: Кейт Мерримен / Keith Merryman, Дэвид А. Ньюман / David A. Newman, Уилл Глак / Will Gluck, Харли Пейтон / Harley Peyton
Продюсер: Лиз Глоцер / Liz Glotzer, Уилл Глак / Will Gluck, Мартин Шэфер / Martin Shafer, Джанет Цукер / Janet Zucker, Джерри Цукер / Jerry Zucker
Оператор: Майкл Грэйди / Michael Grady

В ролях: Джастин Тимберлэйк (Dylan), Мила Кунис (Jamie), Патришия Кларксон (Lorna), Дженна Элфмэн (Annie), Брайан Гринберг (Parker), Ричард Дженкинс (Mr. Harper), Вуди Харрельсон (Tommy), Нолан Гоулд (Sam), Энди Сэмберг (Quincy), Шон Уайт (играет самого себя), Эндрю Флеминг (Driver), Катрин Рейтман (Female Co-Worker)
Дублёры: Илья Бледный (Dylan), Ирина Киреева (Jamie), Ольга Зубкова (Lorna), Нина Тобилевич (Annie), Александр Новиков (Mr. Harper), Дмитрий Полонский (Tommy), Ефим Клиновский, Наталья Грачева (Kayla), Пётр Иващенко (Brice)

Описание: Главная героиня - сотрудник кадрового агентства, которую преследуют фобии в отношениях с обязательствами. Однако, эти проблемы оказываются надуманными, после того как она встречает редактора глянцевого журнала. Он, в свою очередь, устал от женщин, которые мечтают вступить с ним в связь. Таким образом, созданы все условия для бурного романа и столкновения характеров и желаний.

Рейтинг
Kinopoisk.RU: 7.275 (24 751)
Imdb.com: 6.70 (27 133)
Mpaa: Изображение

Качество: BDRip 1080p
Формат: MKV
Видео: AVC; 1920x804 (2.40:1); 9653 Kbps; 23,976 fps; 0,261 bpp
Аудио №1: Rus; AC3; 384 Kbps; CBR; 6 ch;
Аудио №2: Eng; DTS; 1509 Kbps; CBR; 6 ch;
Субтитры: Русские (только надписи), английские

Mediainfo
General
Unique ID : 221359340346245089319458650719914061476 (0xA6884219ACB5256C93F0F0BDF4B06EA4)
Complete name : D:\uTorrent\Seks.po.druzbe.2011.x264.BDRip(1080p).mkv
Format : Matroska
Format version : Version 2
File size : 8.83 GiB
Duration : 1h 49mn
Overall bit rate : 11.5 Mbps
Movie name : --SCHUMAHER--
Encoded date : UTC 2011-11-04 18:36:05
Writing application : mkvmerge v5.0.1 ('Es ist Sommer') built on Oct 9 2011 11:55:43
Writing library : libebml v1.2.2 + libmatroska v1.3.0

Video
ID : 1
Format : AVC
Format/Info : Advanced Video Codec
Format profile : High@L4.1
Format settings, CABAC : Yes
Format settings, ReFrames : 5 frames
Codec ID : V_MPEG4/ISO/AVC
Duration : 1h 49mn
Bit rate : 9 653 Kbps
Width : 1 920 pixels
Height : 804 pixels
Display aspect ratio : 2.40:1
Frame rate : 23.976 fps
Color space : YUV
Chroma subsampling : 4:2:0
Bit depth : 8 bits
Scan type : Progressive
Bits/(Pixel*Frame) : 0.261
Stream size : 7.20 GiB (82%)
Writing library : x264 core 116 r2074 2641b9e
Encoding settings : cabac=1 / ref=5 / deblock=1:-3:-3 / analyse=0x3:0x133 / me=umh / subme=10 / psy=1 / psy_rd=1.05:0.05 / mixed_ref=1 / me_range=64 / chroma_me=1 / trellis=2 / 8x8dct=1 / cqm=0 / deadzone=21,11 / fast_pskip=0 / chroma_qp_offset=-3 / threads=9 / sliced_threads=0 / nr=0 / decimate=0 / interlaced=0 / bluray_compat=0 / constrained_intra=0 / bframes=8 / b_pyramid=2 / b_adapt=2 / b_bias=0 / direct=3 / weightb=1 / open_gop=0 / weightp=2 / keyint=360 / keyint_min=2 / scenecut=40 / intra_refresh=0 / rc_lookahead=120 / rc=2pass / mbtree=1 / bitrate=9653 / ratetol=1.0 / qcomp=0.70 / qpmin=0 / qpmax=69 / qpstep=4 / cplxblur=20.0 / qblur=0.5 / ip_ratio=1.40 / aq=2:0.95
Language : English

Audio #1
ID : 2
Format : AC-3
Format/Info : Audio Coding 3
Mode extension : CM (complete main)
Codec ID : A_AC3
Duration : 1h 49mn
Bit rate mode : Constant
Bit rate : 384 Kbps
Channel(s) : 6 channels
Channel positions : Front: L C R, Side: L R, LFE
Sampling rate : 48.0 KHz
Bit depth : 16 bits
Compression mode : Lossy
Stream size : 301 MiB (3%)
Language : Russian

Audio #2
ID : 3
Format : DTS
Format/Info : Digital Theater Systems
Codec ID : A_DTS
Duration : 1h 49mn
Bit rate mode : Constant
Bit rate : 1 510 Kbps
Channel(s) : 6 channels
Channel positions : Front: L C R, Side: L R, LFE
Sampling rate : 48.0 KHz
Bit depth : 16 bits
Compression mode : Lossy
Stream size : 1.15 GiB (13%)
Language : English

Text #1
ID : 4
Format : UTF-8
Codec ID : S_TEXT/UTF8
Codec ID/Info : UTF-8 Plain Text
Title : Forced
Language : Russian

Text #2
ID : 5
Format : UTF-8
Codec ID : S_TEXT/UTF8
Codec ID/Info : UTF-8 Plain Text
Language : English

Menu
00:00:00.000 : en:Chapter.01
00:05:23.698 : en:Chapter.02
00:12:34.211 : en:Chapter.03
00:17:42.686 : en:Chapter.04
00:24:20.917 : en:Chapter.05
00:32:57.225 : en:Chapter.06
00:41:28.819 : en:Chapter.07
00:45:45.868 : en:Chapter.08
00:54:45.407 : en:Chapter.09
00:58:58.868 : en:Chapter.10
01:03:57.041 : en:Chapter.11
01:13:44.753 : en:Chapter.12
01:20:59.729 : en:Chapter.13
01:27:09.599 : en:Chapter.14
01:32:09.649 : en:Chapter.15
01:38:30.321 : en:Chapter.16

Свернуть
"Знаете ли Вы, что..."
  • В аэропорту главная героиня берёт табличку с именем О. Пендергаст. Так звали главную героиню фильма «Отличница легкого поведения», роль которой исполняет Эмма Стоун, играющая небольшую роль в данном фильме.
  • В самом конце фильма, после финальных титров, показаны неудавшиеся дубли фильма с участием Джейсона Сигела и Рашиды Джонс.
Свернуть
Скриншоты
Изображение

Изображение

Изображение
Свернуть
Не в сети
Профиль  
 Добавлено: 2011-11-06 11:08 (спустя 1 день 11 часов)
Аватара пользователя
Стаж: 7 лет 5 месяцев
Возраст: 33
Сообщений: 443
Спасибок: 1940
Лайков: 6
отличный фильм , позитивный
Вуди Харрельсон как всегда на высоте ))

P.S.спс
_________________
Intel Core i5-760 2800\GA-H55-UD3H\1600MHz Corsair 2048MB x4\Cooler Master Hyper N620\MSI GeForce GT 730, N730-2GD3V2\SEAGATE ST1000DL002 x2\Thermaltake TR2 RX 750W\AirTone F-GI09A\Acer V243\W10 Pro x64
Не в сети
Профиль  
 Добавлено: 2011-11-12 23:33 (спустя 6 дней)
Аватара пользователя
Стаж: 5 лет
Возраст: 30
Сообщений: 1
фильм просто суперский!!!!!!!!! :ya_hoo_oo: :ya_hoo_oo: :ya_hoo_oo: :ya_hoo_oo: :ya_hoo_oo:
Не в сети
Профиль  
 Добавлено: 2011-11-19 20:16 (спустя 6 дней)
Аватара пользователя
Стаж: 8 лет 10 месяцев
Возраст: 27
Сообщений: 721
Спасибок: 5528
Лайков: 1
отличная легкая комедия, глянул не напрягаясь :)
_________________
Изображение
Не в сети
Профиль  
 Добавлено: 2012-01-07 17:46 (спустя 1 месяц 17 дней)
Аватара пользователя
Стаж: 7 лет 10 месяцев
Сообщений: 35
фильм отличный.позитивный.спс
Не в сети
Профиль  
 Добавлено: 2012-05-21 14:47 (спустя 4 месяца 13 дней)
Аватара пользователя
Стаж: 7 лет 5 месяцев
Возраст: 51
Сообщений: 1772
Лайков: 1386
Фильм отличный, посмотрел с огромным удовольствием и отложил в копилку. Очень рекомендую для поднятия настроения.

Рецензию писать не буду, лень. Посмотрите это кино и убедитесь сами.

Единственное, что отмечу - Тимберлейка. Обычно он играет так себе, но в этой фильме отыграл на все сто. Молодец парень. Растет.

Да и Мила Кунис - лапочка.
Не в сети
Профиль  
Начать новую темуОтветить на тему  [ Сообщений: 6 ] 
Вы не можете начинать темы
Вы не можете отвечать на сообщения
Вы не можете редактировать свои сообщения
Вы не можете удалять свои сообщения