Правила форума

  • В этом разделе создание новых тем Запрещено.
  • Для создания новых тем пользуйтесь Корневым разделом DVD и HD фильмы.
Начать новую темуОтветить на тему  [ 1 сообщение ] 
Торрент файл
Размер: 8.29 GB • Зарегистрирован: 4 года 5 месяцев • Статус: Проверено
Скачан: 83 раза • Желающих скачать: 0 • Поблагодарили: 13 раз
 Раздают: 0  |  0 KB/s  ]   Качают: 0  |  0 KB/s  ] 
 Полного источника не было 2 месяца 7 дней 
Сообщения
 Добавлено: 2012-06-28 13:42
Руководитель релиз-группы
Аватара пользователя
Стаж: 7 лет 5 месяцев
Возраст: 31
Сообщений: 3406
Спасибок: 46729
Лайков: 5
Изображение

Секса много не бывает
Un heureux événement


Год выпуска: 2011
Страна: Франция, Бельгия
Слоган: «В ожидании чуда...»
Жанр: драма, комедия
Продолжительность: 01:49:28
Перевод: Профессиональный (многоголосый, закадровый)
Режиссер: Реми Безансон
Сценарий: Реми Безансон, Ванесса Порталь, Элит Абекассис
Продюсер: Женевьева Лемаль
Оператор: Антуан Моно
В ролях: Луиз Бургуан, Пио Мармай, Жозиан Баласко, Тьерри Фремон, Габриель Лазюр, Фирмин Ришар, Анаис, Дафна Бюрки, Ланник Готри, Жерар Любин, Николь Вальберг, Луи-До де Ланкесэ, Офелия Керинг, Амели Гленн, Доминик Байенс, Мишель Набокофф, Айссату Диоп, Анник Джонсон, Давид Фонкинос, Эрика Сэйнт, Виктория Бекер, Джульетт Бекер
Описание: Семейная пара в ожидании рождения ребенка переживает эмоциональный подъем.
Изображение
MPAA: Изображение
Раздача группы: Изображение
Качество: BDRip, 1080p
Формат: Matroska
Видео: AVC; 1920x816 (2.35:1); 8662 Kbps; 24 fps; 0,230 bit/pixel
Аудио №1: AC3; 448 Kbps; CBR; 6 ch Russian
Аудио №2: DTS; 1509 Kbps; CBR; 6 ch; 24 bit French
Субтитры: русские

mediainfo
Формат : Matroska
Версия формата : Version 2
Размер файла : 8,29 Гбайт
Продолжительность : 1 ч. 49 м.
Общий поток : 10,8 Мбит/сек
Название фильма : Denils
Дата кодирования : UTC 2012-06-28 09:34:23
Программа кодирования : mkvmerge v3.2.0 ('Beginnings') built on Feb 12 2010 16:46:17
Библиотека кодирования : libebml v0.7.9 + libmatroska v0.8.1

Видео
Идентификатор : 1
Формат : AVC
Формат/Информация : Advanced Video Codec
Профиль формата : High@L4.1
Параметр CABAC формата : Да
Параметр ReFrames формата : 5 кадров
Идентификатор кодека : V_MPEG4/ISO/AVC
Продолжительность : 1 ч. 49 м.
Битрейт : 8885 Кбит/сек
Ширина : 1920 пикселей
Высота : 816 пикселей
Соотношение сторон : 2,35:1
Частота кадров : 24,000 кадра/сек
Цветовое пространство : YUV
Субдискретизация насыщенности : 4:2:0
Битовая глубина : 8 бит
Тип развёртки : Прогрессивная
Бит/(Пиксели*Кадры) : 0.236
Размер потока : 6,62 Гбайт (80%)
Библиотека кодирования : x264 core 120 r2146 bcd41db
Настройки программы : cabac=1 / ref=5 / deblock=1:0:0 / analyse=0x3:0x113 / me=umh / subme=7 / psy=1 / psy_rd=1.00:0.15 / mixed_ref=1 / me_range=16 / chroma_me=1 / trellis=1 / 8x8dct=1 / cqm=0 / deadzone=21,11 / fast_pskip=0 / chroma_qp_offset=-3 / threads=12 / sliced_threads=0 / nr=0 / decimate=1 / interlaced=0 / bluray_compat=0 / constrained_intra=0 / bframes=3 / b_pyramid=2 / b_adapt=1 / b_bias=0 / direct=1 / weightb=1 / open_gop=0 / weightp=2 / keyint=250 / keyint_min=24 / scenecut=40 / intra_refresh=0 / rc_lookahead=40 / rc=2pass / mbtree=1 / bitrate=8885 / ratetol=1.0 / qcomp=0.60 / qpmin=0 / qpmax=69 / qpstep=4 / cplxblur=20.0 / qblur=0.5 / ip_ratio=1.40 / aq=1:1.00
Язык : English

Аудио #1
Идентификатор : 2
Формат : AC-3
Формат/Информация : Audio Coding 3
Расширение режима : CM (complete main)
Идентификатор кодека : A_AC3
Продолжительность : 1 ч. 49 м.
Вид битрейта : Постоянный
Битрейт : 448 Кбит/сек
Каналы : 6 каналов
Расположение каналов : Front: L C R, Side: L R, LFE
Частота : 48,0 КГц
Битовая глубина : 16 бит
Метод сжатия : С потерями
Размер потока : 351 Мбайт (4%)
Язык : Russian

Аудио #2
Идентификатор : 3
Формат : DTS
Формат/Информация : Digital Theater Systems
Идентификатор кодека : A_DTS
Продолжительность : 1 ч. 49 м.
Вид битрейта : Постоянный
Битрейт : 1510 Кбит/сек
Каналы : 6 каналов
Расположение каналов : Front: L C R, Side: L R, LFE
Частота : 48,0 КГц
Битовая глубина : 24 бит
Метод сжатия : С потерями
Задержка видео : 11 мс.
Размер потока : 1,15 Гбайт (14%)
Язык : French

Текст
Идентификатор : 4
Формат : UTF-8
Идентификатор кодека : S_TEXT/UTF8
Идентификатор кодека/Информация : UTF-8 Plain Text
Заголовок : R5
Язык : Russian

Меню
00:00:00.000 : en:00:00:00.000
00:09:07.958 : en:00:09:07.958
00:18:18.000 : en:00:18:18.000
00:25:24.417 : en:00:25:24.417
00:32:32.375 : en:00:32:32.375
00:40:48.375 : en:00:40:48.375
00:51:04.208 : en:00:51:04.208
01:04:50.083 : en:01:04:50.083
01:14:56.583 : en:01:14:56.583
01:23:12.792 : en:01:23:12.792
01:34:50.625 : en:01:34:50.625
01:40:55.083 : en:01:40:55.083

Свернуть
"Знаете ли Вы, что..."
  • Фильм является экранизацией одноимённого романа французской писательницы Элит Абекассис, вышедшего во Франции в 2005 году.
  • Центральная в фильме сцена рождения ребёнка снималась в помещениях студии на протяжении двух дней. Испытывавшая все это время массу неудобств (простетический живот, мнимые инъекции, постоянный монитор артериального давления, направленные со всех сторон камеры и осветители и всё это при изнуряющей жаре) Луиз Бургуан в один из моментов упала в обморок. Режиссёр решил оставить эту сцену в фильме.
  • Пио Мармай и Луиз Бургуан провели много времени вместе, общаясь и привыкая друг к другу с тем, чтобы казаться на экране настоящей семейной парой.
  • Актриса Жозиан Баласко впервые познакомилась с режиссёром Реми Безансоном на кинофестивале в Афинах. Будучи незнакомыми с фильмами друг друга они просто выпивали и общались на сторонние темы. Следующая их встреча состоялась на фестивале в Лос-Анджелесе, и тогда режиссёр решил послать актрисе сценарий с предложением сыграть роль Клэр. Соблазнённая интересным персонажем и его особенностями та ответила согласием.
  • До начала работы над фильмом актриса Луиз Бургуан не имела практически никакого опыта контактов с младенцами. Работать с ними было для неё очень нелегко, но со временем она стала оставаться и играть с малышами в перерывах между съёмками. В отдельных случаях она даже проводила воскресенье с их семьями.
  • Состоящая из пятидесяти человек съёмочная группа вынуждена была постоянно приспосабливаться к периодам кормления и сна малышей.
  • Французский режиссёр-ветеран Жан-Поль Рапно планировал съёмки своего фильма под названием «Иностранные связи», главные роли в котором бы сыграли Луиз Бургуан, Пио Мармай и Жозиан Баласко. Поскольку этот проект так и не стал реальностью, его разработчик предложил режиссёру Реми Безансону взять всех этих исполнителей в свой будущий фильм.
  • Оператор Антуан Моно и режиссёр Реми Безансон провели немало времени, вместе готовясь к съёмкам картины. С разрешения родителей они снимали сцены родов, практикуясь выбирать нужные кадры и максимально близко к реальности захватить все эмоции происходящего.
Свернуть
Скриншоты

Изображение

Изображение

Изображение
Свернуть
Не в сети
Профиль  
Начать новую темуОтветить на тему  [ 1 сообщение ] 
Вы не можете начинать темы
Вы не можете отвечать на сообщения
Вы не можете редактировать свои сообщения
Вы не можете удалять свои сообщения