Правила форума

  • В этом разделе создание новых тем Запрещено.
  • Для создания новых тем пользуйтесь Корневым разделом DVD и HD фильмы.
Начать новую темуОтветить на тему  [ 1 сообщение ] 
Торрент файл
Размер: 6.98 GB • Зарегистрирован: 6 лет 10 месяцев • Статус: Проверено
Скачан: 54 раза • Желающих скачать: 0 • Поблагодарили: 16 раз
 Раздают: 0  |  0 KB/s  ]   Качают: 0  |  0 KB/s  ] 
 Полного источника не было 11 часов 
Сообщения
 Добавлено: 2010-01-10 13:54
Аватара пользователя
Стаж: 8 лет 9 месяцев
Сообщений: 284
Спасибок: 4430
[br]

Семь лет в Тибете
Seven Years in Tibet

Изображение

Год выпуска: 1997
Страна: Изображение Изображение
Слоган: «At the end of the world his real journey began»
Жанр: драма, приключения, военный, биография, история
Продолжительность: 136 мин.
Перевод: Профессиональный (многоголосый, закадровый)
Русские Субтитры: есть
Режиссер: Жан-Жак Анно
Сценарий: Генрих Харрер, Бекки Джонстон
Продюссер: Жан-Жак Анно, Michael Besman, Ричард Б. Гудвин
Оператор: Робер Фрэсс, David Breashears
Композитор: Джон Уильямс, Клод Дебюсси
В ролях: Брэд Питт, Дэвид Тьюлис, Б. Д. Вонг, Мако, Дэнни Дензонпа, Виктор Вонг, Ингеборга Дапкунайте, Джамъян Джамцо Ванчук, Лакпа Цамчу, Джецун Пема, Ама Аша Донце, Сонам Ванчук, Дордже Церин, Рик Янг, Наван Чоджор
Описание: Генрих Харрер, офицер Рейха, человек, у которого было все — успех, красота, известность. Но ему было мало земной славы. Оставив дома беременную жену, он отправляется на покорение самого неприступного пика в Гималаях. Этот подвиг должен увековечить его имя.
Однако впереди его ждет не успешное восхождение, а смертельная опасность, вражеский плен, долгие скитания… Наконец он добирается до таинственного тибетского города Лхаса, где ему предстоит провести долгих семь лет, и где молодой Далай Лама делает его своим приближенным. И здесь, в стране, лежащей за границами цивилизации, ему придется пережить события, которые навсегда изменят его жизнь…
Раздача группы: Изображение

Изображение
Изображение: 6.7/10
Премьера (мир): 13 сентября 1997
Бюджет: $70 000 000
Сборы в мире: $131 457 682
Возрастной рейтинг MPAA: Изображение

Качество: BDRip 720p
Формат: MKV
Видео кодек: H.264
Аудио кодек: AC3+DTS
Видео: 1280x528, 23.976 fps, ~5385 kbps
Аудио #1: Russian: 48 kHz, AC3 Dolby Digital, 6 ch (Front: L C R, Surround: L R, LFE), ~448 kbps avg;
Аудио #2: English: 48 kHz, DTS, 6 ch (Front: L C R, Surround: L R, LFE), ~1510 Kbps
Субтитры: русские, английские, испанские, португальские, финские, датские, голландские, польские, чешские, словацкие, иврит, арабские, греческие, литовские, турецкие, румынские
"Mediainfo"
General
Complete name : C:\HD\7 years\Seven.Years.in.Tibet.1997.720p.BluRay.AC3.rus.DTS.eng.x264-ESiR.mkv
Format : Matroska
File size : 6.98 GiB
Duration : 2h 16mn
Overall bit rate : 7 344 Kbps
Movie name : Seven.Years.in.Tibet.1997.720p.BluRay.DTS.x264-ESiR
Encoded date : UTC 2010-01-05 11:51:39
Writing application : mkvmerge v2.1.0 ('Another Place To Fall') built on Aug 19 2007 13:40:07
Writing library : libebml v0.7.7 + libmatroska v0.8.1
Cover : Yes / Yes / Yes
Video
ID : 1
Format : AVC
Format/Info : Advanced Video Codec
Format profile : High@L5.1
Format settings, CABAC : Yes
Format settings, ReFrames : 8 frames
Muxing mode : Container profile=Unknown@5.1
Codec ID : V_MPEG4/ISO/AVC
Duration : 2h 16mn
Bit rate : 5 240 Kbps
Nominal bit rate : 5 385 Kbps
Width : 1 280 pixels
Height : 528 pixels
Display aspect ratio : 2.40:1
Frame rate : 23.976 fps
Resolution : 24 bits
Colorimetry : 4:2:0
Scan type : Progressive
Bits/(Pixel*Frame) : 0.323
Stream size : 4.98 GiB (71%)
Title : Seven.Years.in.Tibet.1997.720p.BluRay.DTS.x264-ESiR
Writing library : x264 core 54 svn-635M
Encoding settings : cabac=1 / ref=5 / deblock=1:-3:-3 / analyse=0x3:0x133 / me=hex / subme=7 / brdo=1 / mixed_ref=1 / me_range=16 / chroma_me=1 / trellis=1 / 8x8dct=1 / cqm=2 / deadzone=21,11 / chroma_qp_offset=0 / threads=2 / nr=0 / decimate=1 / mbaff=0 / bframes=3 / b_pyramid=1 / b_adapt=1 / b_bias=0 / direct=1 / wpredb=1 / bime=1 / keyint=250 / keyint_min=25 / scenecut=40(pre) / rc=2pass / bitrate=5385 / ratetol=1.0 / rceq='blurCplx^(1-qComp)' / qcomp=0.60 / qpmin=10 / qpmax=51 / qpstep=4 / cplxblur=20.0 / qblur=0.5 / ip_ratio=1.40 / pb_ratio=1.30 / aq=1:0.5:15.0
Language : English
Audio #1
ID : 2
Format : AC-3
Format/Info : Audio Coding 3
Codec ID : A_AC3
Duration : 2h 16mn
Bit rate mode : Constant
Bit rate : 448 Kbps
Channel(s) : 6 channels
Channel positions : Front: L C R, Surround: L R, LFE
Sampling rate : 48.0 KHz
Stream size : 436 MiB (6%)
Language : Russian
Audio #2
ID : 3
Format : DTS
Format/Info : Digital Theater Systems
Codec ID : A_DTS
Duration : 2h 16mn
Bit rate mode : Constant
Bit rate : 1 510 Kbps
Channel(s) : 6 channels
Channel positions : Front: L C R, Surround: L R, LFE
Sampling rate : 48.0 KHz
Resolution : 24 bits
Video delay : 11ms
Stream size : 1.44 GiB (21%)
Title : English
Language : English
Text #1
ID : 4
Format : UTF-8
Codec ID : S_TEXT/UTF8
Codec ID/Info : UTF-8 Plain Text
Title : Seven.Years.in.Tibet.1997.720p.BluRay.DTS.x264-ESiR.rus
Language : Russian
Text #2
ID : 5
Format : ASS
Codec ID : S_TEXT/ASS
Codec ID/Info : Advanced Sub Station Alpha
Title : English
Language : English
Text #3
ID : 6
Format : ASS
Codec ID : S_TEXT/ASS
Codec ID/Info : Advanced Sub Station Alpha
Title : Spanish
Language : Spanish
Text #4
ID : 7
Format : UTF-8
Codec ID : S_TEXT/UTF8
Codec ID/Info : UTF-8 Plain Text
Language : Portuguese
Text #5
ID : 8
Format : ASS
Codec ID : S_TEXT/ASS
Codec ID/Info : Advanced Sub Station Alpha
Title : Finnish
Language : Finnish
Text #6
ID : 9
Format : ASS
Codec ID : S_TEXT/ASS
Codec ID/Info : Advanced Sub Station Alpha
Title : Danish
Language : Danish
Text #7
ID : 10
Format : ASS
Codec ID : S_TEXT/ASS
Codec ID/Info : Advanced Sub Station Alpha
Title : Dutch
Language : Dutch
Text #8
ID : 11
Format : ASS
Codec ID : S_TEXT/ASS
Codec ID/Info : Advanced Sub Station Alpha
Title : Polish
Language : Polish
Text #9
ID : 12
Format : UTF-8
Codec ID : S_TEXT/UTF8
Codec ID/Info : UTF-8 Plain Text
Language : Czech
Text #10
ID : 13
Format : UTF-8
Codec ID : S_TEXT/UTF8
Codec ID/Info : UTF-8 Plain Text
Language : Slovak
Text #11
ID : 14
Format : UTF-8
Codec ID : S_TEXT/UTF8
Codec ID/Info : UTF-8 Plain Text
Language : Hebrew
Text #12
ID : 15
Format : UTF-8
Codec ID : S_TEXT/UTF8
Codec ID/Info : UTF-8 Plain Text
Language : Arabic
Text #13
ID : 16
Format : UTF-8
Codec ID : S_TEXT/UTF8
Codec ID/Info : UTF-8 Plain Text
Language : Greek
Text #14
ID : 17
Format : UTF-8
Codec ID : S_TEXT/UTF8
Codec ID/Info : UTF-8 Plain Text
Language : Lithuanian
Text #15
ID : 18
Format : UTF-8
Codec ID : S_TEXT/UTF8
Codec ID/Info : UTF-8 Plain Text
Language : Turkish
Text #16
ID : 19
Format : UTF-8
Codec ID : S_TEXT/UTF8
Codec ID/Info : UTF-8 Plain Text
Language : Romanian
Свернуть
"Скриншоты"
Изображение
Изображение
Изображение
Изображение
Свернуть
Не в сети
Профиль  
Начать новую темуОтветить на тему  [ 1 сообщение ] 
Вы не можете начинать темы
Вы не можете отвечать на сообщения
Вы не можете редактировать свои сообщения
Вы не можете удалять свои сообщения