Правила форума

  • В этом разделе создание новых тем Запрещено.
  • Для создания новых тем пользуйтесь Корневым разделом DVD и HD фильмы.
Начать новую темуОтветить на тему  [ Сообщений: 5 ] 
Торрент файл
Размер: 8.17 GB • Зарегистрирован: 3 года 10 месяцев • Статус: Проверено
Скачан: 93 раза • Желающих скачать: 0 • Поблагодарили: 24 раза
 Раздают: 0  |  0 KB/s  ]   Качают: 0  |  0 KB/s  ] 
 Полного источника не было 3 месяца 4 дня 
Сообщения
 Добавлено: 2013-02-02 12:26
Руководитель релиз-группы
Аватара пользователя
Стаж: 7 лет 5 месяцев
Возраст: 31
Сообщений: 3406
Спасибок: 46729
Лайков: 5
Изображение

Семь психопатов
Seven Psychopaths


Год выпуска: 2012
Страна: Великобритания
Слоган: «They Won't Take Any Shih Tzu.»
Жанр: комедия, криминал
Продолжительность: 01:50:23
Перевод: Профессиональный (полное дублирование) [лицензия]
Режиссер: Мартин МакДона
Сценарий: Мартин МакДона
Продюсер: Грэхэм Броадбент, Питер Чернин, Мартин МакДона, Бетси Дэнбьюри, Сара Харви
Оператор: Бен Дэвис
Композитор: Картер Бёруэлл
В ролях: Колин Фаррелл, Сэм Рокуэлл, Кристофер Уокен, Вуди Харрельсон, Том Уэйтс, Эбби Корниш, Ольга Куриленко, Желько Иванек, Майкл Питт, Майкл Стулбарг, Габури Сидибе, Гарри Дин Стэнтон
Бюджет: $15 000 000
Сборы в США: $15 024 049
Сборы в России: $2 933 030
Сборы в мире: $16 189 164
Описание: Непутевый писатель потерял вдохновение и никак не может справиться с новым сценарием. Волей случая он оказывается втянутым в похищение собаки, затеянное его эксцентричными дружками. Выясняется, что украденное животное - любимый пёс главного местного гангстера, которому ничего не стоит в два счета вычислить и уничтожить оболтусов.
Изображение
MPAA: Изображение
Мировая премьера: 7 сентября 2012
Релиз на DVD: 6 февраля 2013, «Кармен Видео», «ВС трейд»
Релиз на Blu-ray: 6 февраля 2013, «Кармен Видео»
Релиз: Изображение Раздача группы: Изображение
Качество: BDRip, 720p
Формат: MKV
Видео: AVC; 1280x534 (2.35:1); 8658 Kbps; 23,976 fps; 0,528 bit/pixel
Аудио №1: AC3; 640 Kbps; CBR; 6 ch Russian
Аудио №2: AC3; 448 Kbps; CBR; 6 ch Russian |Гоблин|
Аудио №3: AC3; 640 Kbps; CBR; 6 ch English
Субтитры: русские, английские
mediainfo
Формат : Matroska
Версия формата : Version 2
Размер файла : 8,17 Гбайт
Продолжительность : 1 ч. 50 м.
Общий поток : 10,6 Мбит/сек
Название фильма : IRONCLUB
Дата кодирования : UTC 2013-02-01 19:02:40
Программа кодирования : mkvmerge v5.2.0 ('I can't explain') built on Dec 18 2011 18:12:03
Библиотека кодирования : libebml v1.2.3 + libmatroska v1.3.0

Видео
Идентификатор : 1
Формат : AVC
Формат/Информация : Advanced Video Codec
Профиль формата : High@L4.1
Параметр CABAC формата : Да
Параметр ReFrames формата : 12 кадров
Идентификатор кодека : V_MPEG4/ISO/AVC
Продолжительность : 1 ч. 50 м.
Битрейт : 8659 Кбит/сек
Ширина : 1280 пикселей
Высота : 534 пикселя
Соотношение сторон : 2,40:1
Частота кадров : 23,976 кадра/сек
Цветовое пространство : YUV
Субдискретизация насыщенности : 4:2:0
Битовая глубина : 8 бит
Тип развёртки : Прогрессивная
Бит/(Пиксели*Кадры) : 0.528
Размер потока : 6,68 Гбайт (82%)
Заголовок : Seven Psychopaths 2012 720p BluRay x264-tranc
Библиотека кодирования : x264 core 129 r2230 1cffe9f
Настройки программы : cabac=1 / ref=12 / deblock=1:-3:-3 / analyse=0x3:0x133 / me=umh / subme=10 / psy=1 / psy_rd=0.95:0.00 / mixed_ref=1 / me_range=24 / chroma_me=1 / trellis=2 / 8x8dct=1 / cqm=0 / deadzone=21,11 / fast_pskip=0 / chroma_qp_offset=-2 / threads=6 / lookahead_threads=1 / sliced_threads=0 / nr=0 / decimate=0 / interlaced=0 / bluray_compat=0 / constrained_intra=0 / bframes=9 / b_pyramid=2 / b_adapt=2 / b_bias=0 / direct=3 / weightb=1 / open_gop=0 / weightp=2 / keyint=250 / keyint_min=23 / scenecut=40 / intra_refresh=0 / rc=crf / mbtree=0 / crf=16.7 / qcomp=0.70 / qpmin=0 / qpmax=69 / qpstep=4 / ip_ratio=1.30 / pb_ratio=1.25 / aq=1:0.87
Язык : English

Аудио #1
Идентификатор : 2
Формат : AC-3
Формат/Информация : Audio Coding 3
Расширение режима : CM (complete main)
Идентификатор кодека : A_AC3
Продолжительность : 1 ч. 50 м.
Вид битрейта : Постоянный
Битрейт : 640 Кбит/сек
Каналы : 6 каналов
Расположение каналов : Front: L C R, Side: L R, LFE
Частота : 48,0 КГц
Битовая глубина : 16 бит
Метод сжатия : С потерями
Размер потока : 505 Мбайт (6%)
Заголовок : DD 5.1 @ 640 kbps - Dub, BluRay
Язык : Russian

Аудио #2
Идентификатор : 3
Формат : AC-3
Формат/Информация : Audio Coding 3
Расширение режима : CM (complete main)
Идентификатор кодека : A_AC3
Продолжительность : 1 ч. 50 м.
Вид битрейта : Постоянный
Битрейт : 448 Кбит/сек
Каналы : 6 каналов
Расположение каналов : Front: L C R, Side: L R, LFE
Частота : 48,0 КГц
Битовая глубина : 16 бит
Метод сжатия : С потерями
Размер потока : 354 Мбайт (4%)
Заголовок : DD 5.1 @ 448 kbps - Goblin
Язык : Russian

Аудио #3
Идентификатор : 4
Формат : AC-3
Формат/Информация : Audio Coding 3
Расширение режима : CM (complete main)
Идентификатор кодека : A_AC3
Продолжительность : 1 ч. 50 м.
Вид битрейта : Постоянный
Битрейт : 640 Кбит/сек
Каналы : 6 каналов
Расположение каналов : Front: L C R, Side: L R, LFE
Частота : 48,0 КГц
Битовая глубина : 16 бит
Метод сжатия : С потерями
Размер потока : 505 Мбайт (6%)
Заголовок : DD 5.1 @ 640 kbps
Язык : English

Текст #1
Идентификатор : 5
Формат : UTF-8
Идентификатор кодека : S_TEXT/UTF8
Идентификатор кодека/Информация : UTF-8 Plain Text
Язык : Russian

Текст #2
Идентификатор : 6
Формат : UTF-8
Идентификатор кодека : S_TEXT/UTF8
Идентификатор кодека/Информация : UTF-8 Plain Text
Заголовок : Forced
Язык : English

Текст #3
Идентификатор : 7
Формат : UTF-8
Идентификатор кодека : S_TEXT/UTF8
Идентификатор кодека/Информация : UTF-8 Plain Text
Язык : English

Свернуть
"Знаете ли Вы, что..."
  • В сцене на кладбище на могиле, за которой прячется киллер по кличке «Бубновый Валет», видна надпись «Rourke». Микки Рурк первоначально должен был сниматься в фильме, но из-за разногласий с режиссёром фильма он был заменен на Вуди Харрельсона.
Свернуть
Скриншоты

Изображение

Изображение

Изображение

Изображение

Изображение
Свернуть
Не в сети
Профиль  
 Добавлено: 2013-02-02 19:51 (спустя 7 часов)
Аватара пользователя
Стаж: 8 лет
Сообщений: 1390
Спасибок: 39
Лайков: 64
О, прикольно, с Гоблином, давненько от него студийных переводов не было :co_ol:
Не в сети
Профиль  
 Добавлено: 2013-02-02 20:14 (спустя 22 минуты)
Аватара пользователя
Стаж: 8 лет 8 месяцев
Возраст: 55
Сообщений: 264
Лайков: 19

ferguson:

О, прикольно, с Гоблином, давненько от него студийных переводов не было :co_ol:
Перевод Гоблина скорее всего синхронный, из зала.
Не в сети
Профиль  
 Добавлено: 2013-02-02 21:20 (спустя 1 час 6 минут)
Руководитель релиз-группы
Аватара пользователя
Стаж: 7 лет 5 месяцев
Возраст: 31
Сообщений: 3406
Спасибок: 46729
Лайков: 5

RamirezNN:

из зала
с лицензии, доп. перевод
Не в сети
Профиль  
 Добавлено: 2013-02-03 10:06 (спустя 12 часов)
Аватара пользователя
Стаж: 8 лет
Сообщений: 1390
Спасибок: 39
Лайков: 64
RamirezNN
Не знал бы не говорил, перевод норм :co_ol:
Не в сети
Профиль  
Начать новую темуОтветить на тему  [ Сообщений: 5 ] 
Вы не можете начинать темы
Вы не можете отвечать на сообщения
Вы не можете редактировать свои сообщения
Вы не можете удалять свои сообщения