Правила форума

  • В этом разделе создание новых тем Запрещено.
  • Для создания новых тем пользуйтесь Корневым разделом DVD и HD фильмы.
Начать новую темуОтветить на тему  [ Сообщений: 2 ] 
Торрент файл
Размер: 5.5 GB • Зарегистрирован: 3 года 6 месяцев • Статус: Проверено
Скачан: 20 раз • Желающих скачать: 0 • Поблагодарили: 7 раз
 Раздают: 0  |  0 KB/s  ]   Качают: 0  |  0 KB/s  ] 
 Полного источника не было 2 года 8 месяцев 
Сообщения
 Добавлено: 2013-05-12 11:44
Аватара пользователя
Стаж: 7 лет 2 месяца
Сообщений: 7167
Спасибок: 82015
Лайков: 2438
Семя Дьявола / Devil Seed

Изображение


Год выпуска: 2012
Страна: Канада
Жанр: ужасы
Продолжительность: 01:37:47
Перевод: Любительский (одноголосый закадровый) + Оригинальная звуковая дорожка

Режиссёр: Грег А. Сейджер
В ролях: Ванесса Броце, Мишель Аргирис, Сантеле Канцанезе, Кевин Джейк Уолкер, Вейн Конрой
Описание: Окончание летних каникул совпало для трёх студенток с переездом в новый дом. Возвращаясь с клубной вечеринки в честь новоселья, подвыпившие подруги решили шутки ради заглянуть к местной гадалке. Визит закончился невесело — Алекс, одна из девушек, потеряла сознание, а уже на следующий день вокруг неё начала твориться разная чертовщина, в итоге натолкнувшая Алекс на мысль, что она одержима демоном.


Качество: BDRip 720p
Формат: MKV
Видео кодек: H264 (AVC)
Аудио кодек: DTS
Видео: 1 280x542, 23.976 fps, 6 354 Kbps
Аудио #1: 48.0 KHz, 6 ch, 768 Kbps [Любительский (одноголосый закадровый)] den904
Аудио #2: 48.0 KHz, 6 ch, 768 Kbps [Оригинальная звуковая дорожка]
Изображение
Скриншоты
Изображение

Изображение

Изображение

Изображение
Свернуть
MI
General
Unique ID : 233351653754240105240787895468010849248 (0xAF8DE4CD0BD659B09C7F024BB04D43E0)
Complete name : Семя Дьявола.2012.mkv
Format : Matroska
Format version : Version 2
File size : 5.50 GiB
Duration : 1h 37mn
Overall bit rate : 8 050 Kbps
Encoded date : UTC 2013-05-04 10:51:49
Writing application : mkvmerge v5.8.0 ('No Sleep / Pillow') built on Sep 2 2012 15:37:04
Writing library : libebml v1.2.3 + libmatroska v1.3.0

Video
ID : 1
Format : AVC
Format/Info : Advanced Video Codec
Format profile : High@L4.1
Format settings, CABAC : Yes
Format settings, ReFrames : 11 frames
Codec ID : V_MPEG4/ISO/AVC
Duration : 1h 37mn
Bit rate : 6 381 Kbps
Width : 1 280 pixels
Height : 542 pixels
Display aspect ratio : 2.35:1
Frame rate : 23.976 fps
Color space : YUV
Chroma subsampling : 4:2:0
Bit depth : 8 bits
Scan type : Progressive
Bits/(Pixel*Frame) : 0.384
Stream size : 4.36 GiB (79%)
Title : Devil Seed 2012 720p BluRay DTS x264
Writing library : x264 core 132 r2309kMod 3b1f1f7
Encoding settings : cabac=1 / ref=11 / deblock=1:-3:-3 / analyse=0x3:0x133 / me=umh / subme=10 / psy=1 / fade_compensate=0.00 / psy_rd=1.05:0.00 / mixed_ref=1 / me_range=24 / chroma_me=1 / trellis=2 / 8x8dct=1 / cqm=0 / deadzone=21,11 / fast_pskip=0 / chroma_qp_offset=-2 / threads=6 / lookahead_threads=1 / sliced_threads=0 / nr=0 / decimate=0 / interlaced=0 / bluray_compat=0 / constrained_intra=0 / bframes=8 / b_pyramid=2 / b_adapt=2 / b_bias=0 / direct=3 / weightb=1 / open_gop=0 / weightp=2 / keyint=250 / keyint_min=23 / scenecut=40 / intra_refresh=0 / rc_lookahead=40 / rc=crf / mbtree=1 / crf=14.0000 / qcomp=0.75 / qpmin=0 / qpmax=69 / qpstep=4 / ip_ratio=1.30 / aq=1:0.75
Language : English
Default : Yes
Forced : No

Audio #1
ID : 2
Format : DTS
Format/Info : Digital Theater Systems
Codec ID : A_DTS
Duration : 1h 37mn
Bit rate mode : Constant
Bit rate : 755 Kbps
Channel(s) : 6 channels
Channel positions : Front: L C R, Side: L R, LFE
Sampling rate : 48.0 KHz
Bit depth : 16 bits
Compression mode : Lossy
Stream size : 528 MiB (9%)
Title : den904
Language : Russian
Default : Yes
Forced : No

Audio #2
ID : 3
Format : DTS
Format/Info : Digital Theater Systems
Codec ID : A_DTS
Duration : 1h 37mn
Bit rate mode : Constant
Bit rate : 755 Kbps
Channel(s) : 6 channels
Channel positions : Front: L C R, Side: L R, LFE
Sampling rate : 48.0 KHz
Bit depth : 16 bits
Compression mode : Lossy
Stream size : 528 MiB (9%)
Language : English
Default : No
Forced : No

Menu
00:00:00.000 : :Chapter 01
00:02:39.617 : :Chapter 02
00:10:01.183 : :Chapter 03
00:19:58.780 : :Chapter 04
00:30:35.250 : :Chapter 05
00:37:06.807 : :Chapter 06
00:45:42.906 : :Chapter 07
00:53:19.696 : :Chapter 08
01:04:00.336 : :Chapter 09
01:14:11.822 : :Chapter 10
01:21:34.097 : :Chapter 11
01:33:56.005 : :Chapter 12


Свернуть
 MiSkam и rotametr нравится это.
Не в сети
Профиль  
 Добавлено: 2013-05-13 19:50 (спустя 1 день 8 часов)
Стаж: 8 лет 1 месяц
Сообщений: 22
Спасибок: 35
На последнем скрине точно про "семя", только у дьявола лапа почему-то без когтей :-D
Не в сети
Профиль  
Начать новую темуОтветить на тему  [ Сообщений: 2 ] 
Вы не можете начинать темы
Вы не можете отвечать на сообщения
Вы не можете редактировать свои сообщения
Вы не можете удалять свои сообщения