Правила форума

  • В этом разделе создание новых тем Запрещено.
  • Для создания новых тем пользуйтесь Корневым разделом DVD и HD фильмы.
Начать новую темуОтветить на тему  [ Сообщений: 3 ] 
Торрент файл
Размер: 9.67 GB • Зарегистрирован: 5 лет 2 месяца • Статус: Проверено
Скачан: 169 раз • Желающих скачать: 0 • Поблагодарили: 9 раз
 Раздают: 0  |  0 KB/s  ]   Качают: 0  |  0 KB/s  ] 
 Полного источника не было 15 часов 
Сообщения
 Добавлено: 2011-09-20 18:15
Инквизитор
Аватара пользователя
Стаж: 8 лет 8 месяцев
Сообщений: 3753
Спасибок: 28360
Лайков: 9
Изображение

Семьянин / The Family Man

«А вдруг...»


Год выпуска: 2000
Страна: США
Жанр: фэнтези, драма, мелодрама, комедия
Продолжительность: 02:06:34
Перевод: Профессиональный (дублированный), многоголосый РТР (Россия), Живов (авторский одноголосый)
Режиссер: Бретт Рэтнер
Сценарий: Дэвид Даймонд, Дэвид Вайсман
Продюсер: Марк Абрахам, Тони Людвиг, Алан Ричи
Оператор: Данте Спинотти
Композитор: Дэнни Элфман
В ролях: Николас Кейдж, Теа Леони, Дон Чидл, Джереми Пивен, Сол Рубинек, Йозеф Зоммер, Макензи Вега, Джейк Миллкович, Райан Миллкович, Лиза , Торнхилл и др.
Описание: Джек Кэмпбелл - удачливый брокер, вполне удовлетворенный своей карьерой и живущий "по высшему разряду". Все в его жизни идет, как надо, а ездит он на "Феррари". Но, как нередко бывает, случай радикально меняет его жизнь. Однажды в канун Рождества Джек, делая покупки в супермаркете, становится свидетелем стычки между хозяином магазина и уличным чернокожим панком. Пытаясь уладить конфликт, наш брокер произносит роковую фразу: "Я получил все, что хотел!" Эта фраза стоит Джеку судьбы...
Изображение
Бюджет: $60 000 000
Сборы в мире: $124 745 083
MPAA:
Раздача группы: Изображение
Качество: DTheaterRip, 1080p
Формат: MKV
Видео: 1920х816p, 23,976 fps, x264, 9400 kbps
Аудио 1:Русский AC3 2.0, 48 khz, 192 kbps |Дубляж|
Аудио 2:Русский AC3 2.0, 48 khz, 192 kbps |Многоголосый РТР (Россия)|
Аудио 3:Русский AC3 5.1, 48 khz, 576 kbps |Живов|
Аудио 4:Английский AC3 5.1, 48 khz, 576 kbps
СубтитрыРусские, Английские (SRT)
"Знаете ли Вы, что..."
  • Роскошный автомобиль Ferrari, использованный при съёмках фильма, на самом деле какое-то время принадлежал Николасу Кейджу. Актёр продал его за год до начала съёмок.
  • Первоначально разработкой проекта занимался Кёртис Хэнсон, который должен был стать режиссёром картины.
  • Съёмочный период: 14 ноября 1999 года по 22 марта 2000 года
Свернуть
MediaInfo
General
Unique ID : 203010398380797227020595202382326542315 (0x98BA616A2CDE07238A46DE6160BA2FEB)
Complete name : D:\The.Family.Man.2000.DTheaterRip.1080p.x264.3xRus.Eng.mkv
Format : Matroska
File size : 9.67 GiB
Duration : 2h 6mn
Overall bit rate : 10.9 Mbps
Movie name : Released by shurikello
Encoded date : UTC 2011-01-25 22:04:36
Writing application : mkvmerge v3.4.0 ('Rapunzel') сборка от May 15 2010 09:38:20
Writing library : libebml v0.8.0 + libmatroska v0.9.0
Video
ID : 1
Format : AVC
Format/Info : Advanced Video Codec
Format profile : High@L4.1
Format settings, CABAC : Yes
Format settings, ReFrames : 5 frames
Codec ID : V_MPEG4/ISO/AVC
Duration : 2h 6mn
Bit rate : 9 400 Kbps
Width : 1 920 pixels
Height : 816 pixels
Display aspect ratio : 2.35:1
Frame rate : 23.976 fps
Color space : YUV
Chroma subsampling : 4:2:0
Bit depth : 8 bits
Scan type : Progressive
Bits/(Pixel*Frame) : 0.250
Stream size : 8.12 GiB (84%)
Writing library : x264 core 112 r1867+3 fa4d489
Encoding settings : cabac=1 / ref=5 / deblock=1:-3:-3 / analyse=0x3:0x133 / me=umh / subme=10 / psy=1 / fade_compensate=0.00 / psy_rd=1.00:0.10 / mixed_ref=1 / me_range=32 / chroma_me=1 / trellis=2 / 8x8dct=1 / cqm=0 / deadzone=21,11 / fast_pskip=0 / chroma_qp_offset=-3 / threads=3 / sliced_threads=0 / nr=0 / decimate=1 / interlaced=0 / constrained_intra=0 / fgo=0 / bframes=6 / b_pyramid=2 / b_adapt=2 / b_bias=0 / direct=3 / weightb=1 / open_gop=0 / weightp=2 / keyint=250 / keyint_min=23 / scenecut=40 / intra_refresh=0 / rc=2pass / mbtree=0 / bitrate=9400 / ratetol=1.0 / qcomp=0.60 / qpmin=10 / qpmax=51 / qpstep=4 / cplxblur=20.0 / qblur=0.5 / ip_ratio=1.40 / pb_ratio=1.30 / aq=1:1.00
Language : English
Audio #1
ID : 2
Format : AC-3
Format/Info : Audio Coding 3
Mode extension : CM (complete main)
Codec ID : A_AC3
Duration : 2h 6mn
Bit rate mode : Constant
Bit rate : 192 Kbps
Channel(s) : 2 channels
Channel positions : Front: L R
Sampling rate : 48.0 KHz
Bit depth : 16 bits
Compression mode : Lossy
Stream size : 174 MiB (2%)
Title : Дубляж, AC3 2.0, 192 kbps
Language : Russian
Audio #2
ID : 3
Format : AC-3
Format/Info : Audio Coding 3
Mode extension : CM (complete main)
Codec ID : A_AC3
Duration : 2h 6mn
Bit rate mode : Constant
Bit rate : 192 Kbps
Channel(s) : 2 channels
Channel positions : Front: L R
Sampling rate : 48.0 KHz
Bit depth : 16 bits
Compression mode : Lossy
Stream size : 174 MiB (2%)
Title : Многоголосый (РТР), AC3 2.0, 192 kbps
Language : Russian
Audio #3
ID : 4
Format : AC-3
Format/Info : Audio Coding 3
Mode extension : CM (complete main)
Codec ID : A_AC3
Duration : 2h 6mn
Bit rate mode : Constant
Bit rate : 576 Kbps
Channel(s) : 6 channels
Channel positions : Front: L C R, Side: L R, LFE
Sampling rate : 48.0 KHz
Bit depth : 16 bits
Compression mode : Lossy
Stream size : 521 MiB (5%)
Title : Живов, AC3 5.1, 576 kbps
Language : Russian
Audio #4
ID : 5
Format : AC-3
Format/Info : Audio Coding 3
Mode extension : CM (complete main)
Codec ID : A_AC3
Duration : 2h 6mn
Bit rate mode : Constant
Bit rate : 576 Kbps
Channel(s) : 6 channels
Channel positions : Front: L C R, Side: L R, LFE
Sampling rate : 48.0 KHz
Bit depth : 16 bits
Compression mode : Lossy
Stream size : 521 MiB (5%)
Title : AC3 5.1, 576 kbps
Language : English
Text #1
ID : 6
Format : UTF-8
Codec ID : S_TEXT/UTF8
Codec ID/Info : UTF-8 Plain Text
Language : Russian
Text #2
ID : 7
Format : UTF-8
Codec ID : S_TEXT/UTF8
Codec ID/Info : UTF-8 Plain Text
Language : English
Свернуть
Скриншоты

Изображение
Изображение
Изображение
Изображение
Свернуть

Изображение


Последний раз редактировалось Биг 2013-10-11 20:05, всего редактировалось 2 раз(а).
Не в сети
Профиль  
 Добавлено: 2011-09-20 22:49 (спустя 4 часа)
Стаж: 6 лет 1 месяц
Сообщений: 84

Биг:

Видео: XviD; 720x304 (2.35:1); 1459 Kbps; 25 fps; 0,267 bit/pixel

1080p ?
Не в сети
Профиль  
 Добавлено: 2011-09-21 07:22 (спустя 8 часов)
Инквизитор
Аватара пользователя
Стаж: 8 лет 8 месяцев
Сообщений: 3753
Спасибок: 28360
Лайков: 9
Liporik
поправил, буду за оформителями проверять теперь :hi_hi_hi:
Не в сети
Профиль  
Начать новую темуОтветить на тему  [ Сообщений: 3 ] 
Вы не можете начинать темы
Вы не можете отвечать на сообщения
Вы не можете редактировать свои сообщения
Вы не можете удалять свои сообщения