Правила форума

  • В этом разделе создание новых тем Запрещено.
  • Для создания новых тем пользуйтесь Корневым разделом DVD и HD фильмы.
Начать новую темуОтветить на тему  [ 1 сообщение ] 
Торрент файл
Размер: 10.55 GB • Зарегистрирован: 3 года • Статус: Проверено
Скачан: 4 раза • Желающих скачать: 0 • Поблагодарили: 6 раз
 Раздают: 0  |  0 KB/s  ]   Качают: 0  |  0 KB/s  ] 
 Полного источника не было 1 день 17 часов 
Сообщения
 Добавлено: 2013-11-19 22:37
Аватара пользователя
Стаж: 3 года 2 месяца
Сообщений: 436
Спасибок: 1063
Лайков: 61
Сердце дракона / Heart of the Dragon

Изображение


Год выпуска: 1985
Страна: Китай (Гонконг) (Bo Ho Film Company Ltd., Golden Harvest Compan)
Жанр: Комедийный боевик, триллер, драма, криминал
Продолжительность: 01:38:40
Перевод: Профессиональный (многоголосый закадровый) + Авторский одноголосый (Юрий Живов) + Оригинальная звуковая дорожка
Субтитры: русские, вшитые (на места без перевода)

Режиссёр: Саммо Хунг, Фрут Чан
В ролях: Джеки Чан, Саммо Хунг, Эмили Чу, Хой Ман, Чинг-Йинг Лам, Ланг Чан, Юэнь Ва, Кар Лок Чин, Кори Юэнь, Мелвин Вонг
Описание: Молодой полицейский Тед, поступивший в спецподразделение полиции, получает первое задание. Во время расследования Тед узнаёт, что его брат Денни, непутёвый толстяк и недотёпа, оказался замешанным в торговле краденным. Спасти брата, единственного родного человека, это теперь первое задание Теда...
Доп.информация: Исходник: ChuckNorriss (HDTracker)

Сравнение с исходником
Рейтинг MPAA: Рейтинг R (Подростки до 17 лет допускаются на фильм только в сопровождении одного из родителей)
Рейтинг Кинопоиска: 16+
Изображение 7.31 (1027)
Изображение 6.2 (2057)

Качество: BDRip 1080p
Формат: MKV (Matroshka)
Видео кодек: MPEG4 AVC (x264)
Аудио кодек: AC3 (Dolby Digital)
Видео: MPEG-4 AVC, 13.1 Mбит/с, 1920х1080, 23.976 кадра/сек
Аудио #1: русский, 48 kHz, AC3, 2 ch, 192 kbps avg [Профессиональный (многоголосый закадровый)]
Аудио #2: русский, 48 kHz, AC3, 2 ch, 160 kbps avg [Авторский одноголосый (Юрий Живов)]
Аудио #3: китайский, 48 kHz, DTS, 2 ch, 1509 kbps avg [Оригинальная звуковая дорожка]
Субтитры: русские, вшитые (на места без перевода)

MediaInfo +Лог х264
Общее
Уникальный идентификатор : 217005737347686150257689366175013491514 (0xA341C8E66F9C77048D9CDDA5E0FD533A)
Полное имя : E:VideoSerdce.drakona.1985.x264.BDRip.1080p.mkv
Формат : Matroska
Версия формата : Version 4 / Version 2
Размер файла : 10,5 Гбайт
Продолжительность : 1 ч. 38 м.
Общий поток : 15,3 Мбит/сек
Название фильма : Сердце дракона / Heart of the Dragon / 1985 / BDRip -- STarankov
Дата кодирования : UTC 2013-11-18 03:01:46
Программа кодирования : mkvmerge v6.4.1 ('Omega Point') built on Sep 16 2013 22:05:10
Библиотека кодирования : libebml v1.3.0 + libmatroska v1.4.1

Видео
Идентификатор : 1
Формат : AVC
Формат/Информация : Advanced Video Codec
Профиль формата : High@L4.1
Параметр CABAC формата : Да
Параметр ReFrames формата : 4 кадра
Идентификатор кодека : V_MPEG4/ISO/AVC
Продолжительность : 1 ч. 38 м.
Битрейт : 13,1 Мбит/сек
Ширина : 1920 пикселей
Высота : 1080 пикселей
Соотношение сторон : 16:9
Режим частоты кадров : Постоянный
Частота кадров : 23,976 кадра/сек
Цветовое пространство : YUV
Субдискретизация насыщенности : 4:2:0
Битовая глубина : 8 бит
Тип развёртки : Прогрессивная
Бит/(Пиксели*Кадры) : 0.264
Размер потока : 9,06 Гбайт (86%)
Библиотека кодирования : x264 core 133 r2334 a3ac64b
Настройки программы : cabac=1 / ref=4 / deblock=1:-2:-2 / analyse=0x3:0x113 / me=umh / subme=10 / psy=1 / psy_rd=1.00:0.15 / mixed_ref=1 / me_range=24 / chroma_me=1 / trellis=2 / 8x8dct=1 / cqm=0 / deadzone=21,11 / fast_pskip=0 / chroma_qp_offset=-3 / threads=6 / lookahead_threads=1 / sliced_threads=0 / nr=0 / decimate=1 / interlaced=0 / bluray_compat=0 / constrained_intra=0 / bframes=8 / b_pyramid=2 / b_adapt=2 / b_bias=0 / direct=1 / weightb=1 / open_gop=0 / weightp=2 / keyint=230 / keyint_min=23 / scenecut=40 / intra_refresh=0 / rc_lookahead=40 / rc=crf / mbtree=0 / crf=19.5 / qcomp=0.60 / qpmin=0 / qpmax=69 / qpstep=4 / vbv_maxrate=50000 / vbv_bufsize=62500 / crf_max=0.0 / nal_hrd=none / ip_ratio=1.40 / pb_ratio=1.30 / aq=1:1.00
Язык : Chinese
Default : Да
Forced : Нет

Аудио #1
Идентификатор : 2
Формат : AC-3
Формат/Информация : Audio Coding 3
Расширение режима : CM (complete main)
Параметр Endianness формата : Big
Идентификатор кодека : A_AC3
Продолжительность : 1 ч. 38 м.
Вид битрейта : Постоянный
Битрейт : 192 Кбит/сек
Каналы : 2 канала
Расположение каналов : Front: L R
Частота : 48,0 КГц
Битовая глубина : 16 бит
Метод сжатия : С потерями
Размер потока : 136 Мбайт (1%)
Заголовок : MVO
Язык : Russian
Default : Да
Forced : Нет

Аудио #2
Идентификатор : 3
Формат : AC-3
Формат/Информация : Audio Coding 3
Расширение режима : CM (complete main)
Параметр Endianness формата : Big
Идентификатор кодека : A_AC3
Продолжительность : 1 ч. 38 м.
Вид битрейта : Постоянный
Битрейт : 160 Кбит/сек
Каналы : 2 канала
Расположение каналов : Front: L R
Частота : 48,0 КГц
Битовая глубина : 16 бит
Метод сжатия : С потерями
Размер потока : 113 Мбайт (1%)
Заголовок : AVO (Юрий Живов)
Язык : Russian
Default : Нет
Forced : Нет

Аудио #3
Идентификатор : 4
Формат : DTS
Формат/Информация : Digital Theater Systems
Режим : 16
Параметр Endianness формата : Big
Идентификатор кодека : A_DTS
Продолжительность : 1 ч. 38 м.
Вид битрейта : Постоянный
Битрейт : 1509 Кбит/сек
Каналы : 2 канала
Расположение каналов : Front: L R
Частота : 48,0 КГц
Битовая глубина : 24 бит
Метод сжатия : С потерями
Размер потока : 1,04 Гбайт (10%)
Язык : Chinese
Default : Нет
Forced : Нет

Текст
Идентификатор : 5
Формат : UTF-8
Идентификатор кодека : S_TEXT/UTF8
Идентификатор кодека/Информация : UTF-8 Plain Text
Заголовок : русский (на места без перевода)
Язык : Russian
Default : Да
Forced : Да

---[Information] [17.11.2013 15:26:28] avs [info]: 1920x1080p 1:1 @ 24000/1001 fps (cfr)
---[Information] [17.11.2013 15:26:28] x264 [info]: using SAR=1/1
---[Information] [17.11.2013 15:26:28] x264 [info]: using cpu capabilities: MMX2 SSE2Fast SSSE3 SSE4.2
---[Information] [17.11.2013 15:26:28] x264 [info]: profile High, level 4.1
---[Information] [18.11.2013 9:27:32] x264 [info]: frame I:1055 Avg QP:19.19 size:195024
---[Information] [18.11.2013 9:27:32] x264 [info]: frame P:32820 Avg QP:20.00 size:109595
---[Information] [18.11.2013 9:27:32] x264 [info]: frame B:108085 Avg QP:22.32 size: 56872
---[Information] [18.11.2013 9:27:32] x264 [info]: consecutive B-frames: 1.7% 3.3% 10.3% 27.8% 22.6% 30.8% 2.7% 0.6% 0.2%
---[Information] [18.11.2013 9:27:32] x264 [info]: mb I I16..4: 1.4% 94.8% 3.8%
---[Information] [18.11.2013 9:27:32] x264 [info]: mb P I16..4: 1.1% 48.2% 1.3% P16..4: 28.5% 15.7% 4.9% 0.0% 0.0% skip: 0.4%
---[Information] [18.11.2013 9:27:32] x264 [info]: mb B I16..4: 0.2% 10.4% 0.2% B16..8: 39.0% 11.3% 2.5% direct:17.5% skip:18.9% L0:42.7% L1:43.2% BI:14.1%
---[Information] [18.11.2013 9:27:32] x264 [info]: 8x8 transform intra:95.6% inter:72.5%
---[Information] [18.11.2013 9:27:32] x264 [info]: coded y,uvDC,uvAC intra: 94.4% 90.7% 55.5% inter: 47.9% 43.4% 1.4%
---[Information] [18.11.2013 9:27:32] x264 [info]: i16 v,h,dc,p: 36% 14% 14% 35%
---[Information] [18.11.2013 9:27:32] x264 [info]: i8 v,h,dc,ddl,ddr,vr,hd,vl,hu: 13% 9% 14% 8% 10% 12% 9% 12% 13%
---[Information] [18.11.2013 9:27:32] x264 [info]: i4 v,h,dc,ddl,ddr,vr,hd,vl,hu: 15% 6% 2% 8% 15% 17% 14% 12% 11%
---[Information] [18.11.2013 9:27:32] x264 [info]: i8c dc,h,v,p: 45% 23% 20% 12%
---[Information] [18.11.2013 9:27:32] x264 [info]: Weighted P-Frames: Y:7.8% UV:4.6%
---[Information] [18.11.2013 9:27:32] x264 [info]: ref P L0: 45.7% 12.3% 27.6% 12.3% 2.1% 0.1%
---[Information] [18.11.2013 9:27:32] x264 [info]: ref B L0: 86.5% 10.5% 3.0%
---[Information] [18.11.2013 9:27:32] x264 [info]: ref B L1: 93.9% 6.1%
---[Information] [18.11.2013 9:27:32] x264 [info]: kb/s:13443.47
---[Information] [18.11.2013 9:27:32] encoded 141960 frames, 2.19 fps, 13443.47 kb/s
--[Information] [18.11.2013 9:27:34] Final statistics
---[Information] [18.11.2013 9:27:34] Constant Quality Mode: Quality 19 computed...
---[Information] [18.11.2013 9:27:34] Video Bitrate Obtained (approximate): 13445 kbit/s
--[Information] [18.11.2013 9:27:35] MediaInfo
---[Information] File: E:RipSerdce.drakona.1985.x264.BDRipSerdce.drakona.1985.x264.BDRip.1080p.mkv
Свернуть

Скриншоты
Изображение
Изображение
Изображение
Изображение
Изображение
Свернуть
Не в сети
Профиль  
Начать новую темуОтветить на тему  [ 1 сообщение ] 
Вы не можете начинать темы
Вы не можете отвечать на сообщения
Вы не можете редактировать свои сообщения
Вы не можете удалять свои сообщения