Правила форума

  • В этом разделе создание новых тем Запрещено.
  • Для создания новых тем пользуйтесь Корневым разделом DVD и HD фильмы.
Начать новую темуОтветить на тему  [ Сообщений: 2 ] 
Торрент файл
Размер: 6.89 GB • Зарегистрирован: 2 года 11 месяцев • Статус: T Временный релиз
Скачан: 89 раз • Желающих скачать: 0 • Поблагодарили: 42 раза
 Раздают: 0  |  0 KB/s  ]   Качают: 0  |  0 KB/s  ] 
 Полного источника не было 1 день 4 часа 
Сообщения
 Добавлено: 2013-12-26 18:34
Аватара пользователя
Стаж: 3 года 6 месяцев
Сообщений: 175
Спасибок: 4258
Лайков: 29
Сезон убийц / Killing Season

Изображение


Год выпуска: 2013
Страна: Бельгия, США (Millennium Films, Corsan, Nu Image Films)
Слоган: «The purest form of war is one on one.»
Жанр: Боевик, Триллер
Продолжительность: 01:30:44
Перевод: Профессиональный (многоголосый закадровый) + Любительский (одноголосый закадровый)
Субтитры: Вшитые отключаемые
Язык субтитров: Русский (Full, SDH), Английский (Full)

Режиссёр: Марк Стивен Джонсон
Продюсер: Пол Брюлс, Эд Кэйтелл III, Энтони Рулен
В ролях: Джон Траволта, Роберт Де Ниро, Майло Вентимилья, Элизабет Олин, Диана Любенова, Стефан Штерев
Описание: Сюжет фильма разворачивается в США - живущий в одиночестве в американской глубинке ветеран боевых действий (Де Ниро) знакомится со случайно зашедшим к нему европейцем (Траволта). По ходу фильма выясняется, что когда-то они сражались друг против друга в Боснийской войне, и герой Траволты искал американца, чтобы отомстить ему.
Доп.информация: Сохранены оригинальные чаптеры как на Blu-ray
Мировая премьера: 29 июня 2013 (Чехия)
Премьера в России: 5 декабря 2013, «Top Film Distribution»
Изображение
Изображение

Качество: BDRip 1080p
Формат: MKV
Видео кодек: MPEG-4 AVC/H.264
Аудио кодек: AC3 (Dolby Digital)
Видео: 1920 x 1080 (1.778) at 23.976 fps : 0.194 Bits/Pixel, ~ 9655 Кбит/сек
Аудио #1: AC3 192 Кбит/сек (2ch), 48,0 КГц, 16 бит [Русский, МVO]
Аудио #2: AC3 384 Кбит/сек (6ch), 48,0 КГц, 16 бит [Русский, VO-den904]
Аудио #3: AC3 640 Кбит/сек (6ch), 48,0 КГц, 16 бит [Английский]
Изображение
Скриншоты
Изображение
Изображение
Изображение
Изображение
Изображение
Свернуть

Знаете ли вы, что...
• В оригинальном сценарии события развивались в 1970-х годах.
• Фильм должен был ставить Джон МакТирнан, но после того, как режиссера посадили в тюрьму, на его место пришел Марк Стивен Джонсон.
• Роберт Де Ниро заменил в проекте Николаса Кейджа.
• Ранее проект носил название «Шрапнель» (Shrapnel), а на главные роли рассматривались Николас Кейдж и Джон Траволта.
Свернуть
Ошибки в фильме
• Ближе к концу фильма, когда Эмиль крестится в церкви, он делает это так, как будто он католик, хотя по сюжету он православный серб.
• Когда Бен держит Эмиля под дулом пистолета на скале, при смене кадра можно заметить, что он держит винтовку то выше пояса, то ниже.
• Вскоре после надписи на экране «1995» показывают солдата с голографическим прицелом EOTech на винтовке. Такой прицел появился только в 2001 году.
• В сцене охоты число стрел в колчане Эмиля Ковача не согласуется с количеством его выстрелов.
• Когда Бен Форд смотрит на птицу в небе, показывают андского кондора. Такая птица обитает только в Южной Америке.
Свернуть
MediaInfo
General
Unique ID : 230205115929996286981871545639318025990 (0xAD2FE482398713ECA508F4CC620B7706)
Complete name : F:\ФИЛЬМЫ\Sezon.Ubijc.2013.BDRip.1080p.mkv
Format : Matroska
Format version : Version 2
File size : 6.89 GiB
Duration : 1h 30mn
Overall bit rate : 10.9 Mbps
Movie name : Killing.Season.2013.BluRay.1080p.AC3.x264-CHD
Encoded date : UTC 2013-12-26 11:28:09
Writing application : mkvmerge v2.9.9 ('Tutu') built on Nov 25 2009 21:13:32
Writing library : libebml v0.7.9 + libmatroska v0.8.1

Video
ID : 1
Format : AVC
Format/Info : Advanced Video Codec
Format profile : High@L4.1
Format settings, CABAC : Yes
Format settings, ReFrames : 4 frames
Codec ID : V_MPEG4/ISO/AVC
Duration : 1h 30mn
Bit rate : 9 655 Kbps
Width : 1 920 pixels
Height : 1 080 pixels
Display aspect ratio : 16:9
Frame rate mode : Constant
Frame rate : 23.976 fps
Color space : YUV
Chroma subsampling : 4:2:0
Bit depth : 8 bits
Scan type : Progressive
Bits/(Pixel*Frame) : 0.194
Stream size : 5.98 GiB (87%)
Title : -=Release for NNM-CLUB.RU=-
Writing library : x264 core 125 r2208 d9d2288
Encoding settings : cabac=1 / ref=4 / deblock=1:-3:-3 / analyse=0x3:0x113 / me=umh / subme=10 / psy=1 / psy_rd=1.00:0.05 / mixed_ref=1 / me_range=32 / chroma_me=1 / trellis=2 / 8x8dct=1 / cqm=0 / deadzone=21,11 / fast_pskip=0 / chroma_qp_offset=-2 / threads=8 / lookahead_threads=1 / sliced_threads=0 / nr=0 / decimate=1 / interlaced=0 / bluray_compat=0 / constrained_intra=0 / bframes=4 / b_pyramid=2 / b_adapt=2 / b_bias=0 / direct=3 / weightb=1 / open_gop=0 / weightp=2 / keyint=250 / keyint_min=23 / scenecut=40 / intra_refresh=0 / rc=2pass / mbtree=0 / bitrate=9655 / ratetol=1.0 / qcomp=0.70 / qpmin=0 / qpmax=69 / qpstep=4 / cplxblur=20.0 / qblur=0.5 / ip_ratio=1.40 / pb_ratio=1.30 / aq=2:1.00
Language : English
Default : No
Forced : No

Audio #1
ID : 2
Format : AC-3
Format/Info : Audio Coding 3
Mode extension : CM (complete main)
Format settings, Endianness : Big
Codec ID : A_AC3
Duration : 1h 30mn
Bit rate mode : Constant
Bit rate : 192 Kbps
Channel(s) : 2 channels
Channel positions : Front: L R
Sampling rate : 48.0 KHz
Bit depth : 16 bits
Compression mode : Lossy
Stream size : 125 MiB (2%)
Title : AC3.192.Kbps (2ch) Russian (MVO)
Language : Russian
Default : Yes
Forced : No

Audio #2
ID : 3
Format : AC-3
Format/Info : Audio Coding 3
Mode extension : CM (complete main)
Format settings, Endianness : Big
Codec ID : A_AC3
Duration : 1h 30mn
Bit rate mode : Constant
Bit rate : 384 Kbps
Channel(s) : 6 channels
Channel positions : Front: L C R, Side: L R, LFE
Sampling rate : 48.0 KHz
Bit depth : 16 bits
Compression mode : Lossy
Stream size : 249 MiB (4%)
Title : AC3.384Kbps (6ch) Russian (den904)
Language : Russian
Default : No
Forced : No

Audio #3
ID : 4
Format : AC-3
Format/Info : Audio Coding 3
Mode extension : CM (complete main)
Format settings, Endianness : Big
Codec ID : A_AC3
Duration : 1h 30mn
Bit rate mode : Constant
Bit rate : 640 Kbps
Channel(s) : 6 channels
Channel positions : Front: L C R, Side: L R, LFE
Sampling rate : 48.0 KHz
Bit depth : 16 bits
Compression mode : Lossy
Stream size : 415 MiB (6%)
Title : AC3.640.Kbps (6ch) English
Language : English
Default : No
Forced : No

Text #1
ID : 5
Format : UTF-8
Codec ID : S_TEXT/UTF8
Codec ID/Info : UTF-8 Plain Text
Title : Russian (Full)
Language : Russian
Default : No
Forced : No

Text #2
ID : 6
Format : UTF-8
Codec ID : S_TEXT/UTF8
Codec ID/Info : UTF-8 Plain Text
Title : Russian (SDH)
Language : Russian
Default : No
Forced : No

Text #3
ID : 7
Format : UTF-8
Codec ID : S_TEXT/UTF8
Codec ID/Info : UTF-8 Plain Text
Title : English (Full)
Language : English
Default : No
Forced : No

Menu
00:00:00.000 : en:00:00:00.000
00:09:39.495 : en:00:09:39.495
00:14:10.015 : en:00:14:10.015
00:18:31.985 : en:00:18:31.985
00:29:47.494 : en:00:29:47.494
00:35:45.726 : en:00:35:45.726
00:42:05.606 : en:00:42:05.606
00:50:34.948 : en:00:50:34.948
00:57:30.196 : en:00:57:30.196
01:02:05.847 : en:01:02:05.847
01:09:49.226 : en:01:09:49.226
01:20:47.050 : en:01:20:47.050
01:30:44.188 : en:01:30:44.188
Свернуть
Не в сети
Профиль  
 Добавлено: 2013-12-26 18:47 (спустя 13 минут)
Top-releaser
Аватара пользователя
Стаж: 7 лет 4 месяца
Возраст: 38
Сообщений: 5347
Спасибок: 10068
Лайков: 2936
Нормальный фильм. понравился, финал тоже такой, душевный...
Не в сети
Профиль  
Начать новую темуОтветить на тему  [ Сообщений: 2 ] 
Вы не можете начинать темы
Вы не можете отвечать на сообщения
Вы не можете редактировать свои сообщения
Вы не можете удалять свои сообщения