Правила форума

  • В этом разделе создание новых тем Запрещено.
  • Для создания новых тем пользуйтесь Корневым разделом DVD и HD фильмы.
Начать новую темуОтветить на тему  [ Сообщений: 2 ] 
Торрент файл
Размер: 4.67 GB • Зарегистрирован: 4 года 10 месяцев • Статус: Проверено
Скачан: 17 раз • Желающих скачать: 0 • Поблагодарили: 4 раза
 Раздают: 0  |  0 KB/s  ]   Качают: 0  |  0 KB/s  ] 
 Полного источника не было 1 год 11 месяцев 
Сообщения
 Добавлено: 2012-01-31 20:03
Модератор
Аватара пользователя
Стаж: 5 лет 8 месяцев
Сообщений: 6281
Спасибок: 17338
Лайков: 1633
Шалун / Little Man

Изображение


Год выпуска: 2006
Страна: США, Канада
Слоган: «From the Guys Who Brought You White Chicks.»
Жанр: комедия, криминал
Продолжительность: 98 мин. / 01:38
Перевод: Профессиональный (дубляж)
Субтитры: Русские, Английские, Украинские

Режиссёр: Кинен Айвори Уайанс
Сценарист: Кинен Айвори Уайанс, Шоун Уайанс, Марлон Уайанс
Продюсер: Рик Альварез, Ли Р. Майес, Кинен Айвори Уайанс
Оператор: Стивен Бернстин
Композитор: Тедди Кастелуччи
В ролях: Марлон Уайанс, Шоун Уайанс, Керри Вашингтон, Джон Уизерспун, Трэйси Морган, Локлин Манро, Чазз Пальминтери, Молли Шеннон, Дэвид Алан Грайр, Дейв Шеридан
Описание: Главный герой так мечтает стать отцом, что по ошибке принимает находящегося в бегах маленького и похожего на ребенка воришку за своего брошенного сына. Новоявленный папаша и его жена берут «малыша» к себе в дом и начинают всячески о нем заботиться. Тем временем напарник вора, ограбивший вместе с ним ювелирный магазин, пытается выманить его из новой семьи, чтобы заполучить украденный бриллиант…
Рейтинг MPAA: Рейтинг PG-13 (Дети до 13 лет допускаются на фильм только с родителями)
Мировая премьера: 13 июля 2006
Премьера в России: 14 сентября 2006
Бюджет: $64 000 000

Качество: BDRip
Формат: MKV
Видео кодек: H.26x
Аудио кодек: AC3
Видео: H.264 / 5770 kbps / 1280х694 / 23.976 fps / High@L4.1
Аудио #1: Русский дубляж R5, Dolby Digital / 5.1 / 448 kbps / 48 kHz / DN -1dB
Аудио #2: Английский Dolby Digital / 5.1 / 640 kbps / 48 kHz
Субтитры: Русские, Английские, Украинские
Скриншоты
Изображение
Изображение
Изображение
Свернуть

MediaInfo
Общее
Уникальный идентификатор: 239262871213792751251783022973537453224 (0xB4005A52BE6D429AA26C9ADF031784A8)
Полное имя: F:\Films\Comedy\Little.Man.2006.Blu-ray.720p.x264.Rus.Eng.mkv
Формат: Matroska
Версия формата: Version 2
Размер файла: 4,67 Гбайт
Продолжительность: 1 ч. 37 м.
Общий поток: 6852 Кбит/сек
Название фильма: Little.Man.2006.720p.BluRay.AC3.x264-DON
Дата кодирования: UTC 2010-10-18 07:18:19
Программа кодирования: mkvmerge v3.4.0 ('Rapunzel') built on May 15 2010 09:38:20
Библиотека кодирования: libebml v0.8.0 + libmatroska v0.9.0
Attachment: Yes / Yes / Yes

Видео
Идентификатор: 1
Формат: AVC
Формат/Информация: Advanced Video Codec
Профиль формата: High@L4.1
Параметр CABAC формата: Да
Параметр ReFrames формата: 9 кадров
Идентификатор кодека: V_MPEG4/ISO/AVC
Продолжительность: 1 ч. 37 м.
Битрейт: 5770 Кбит/сек
Ширина: 1280 пикселей
Высота: 694 пикселя
Соотношение сторон: 16:9
Частота кадров: 23,976 кадра/сек
Цветовое пространство: YUV
Субдискретизация насыщенности: 4:2:0
Битовая глубина: 8 бит
Тип развёртки: Прогрессивная
Бит/(Пиксели*Кадры): 0.271
Размер потока: 3,84 Гбайт (82%)
Библиотека кодирования: x264 core 98 r1649 20cbe10
Настройки программы: cabac=1 / ref=9 / deblock=1:-3:-3 / analyse=0x3:0x133 / me=esa / subme=10 / psy=1 / psy_rd=1.00:0.00 / mixed_ref=1 / me_range=32 / chroma_me=1 / trellis=2 / 8x8dct=1 / cqm=0 / deadzone=21,11 / fast_pskip=0 / chroma_qp_offset=-2 / threads=6 / sliced_threads=0 / nr=0 / decimate=1 / interlaced=0 / constrained_intra=0 / bframes=5 / b_pyramid=2 / b_adapt=2 / b_bias=0 / direct=3 / weightb=1 / weightp=2 / keyint=250 / keyint_min=25 / scenecut=40 / intra_refresh=0 / rc=2pass / mbtree=0 / bitrate=5770 / ratetol=1.0 / qcomp=0.60 / qpmin=10 / qpmax=51 / qpstep=4 / cplxblur=20.0 / qblur=0.5 / ip_ratio=1.40 / pb_ratio=1.30 / aq=1:0.60
Язык: English
Default: Да
Forced: Да

Аудио #1
Идентификатор: 2
Формат: AC-3
Формат/Информация: Audio Coding 3
Расширение режима: CM (complete main)
Идентификатор кодека: A_AC3
Продолжительность: 1 ч. 37 м.
Вид битрейта: Постоянный
Битрейт: 448 Кбит/сек
Каналы: 6 каналов
Расположение каналов: Front: L C R, Side: L R, LFE
Частота: 48,0 КГц
Битовая глубина: 16 бит
Метод сжатия: С потерями
Размер потока: 313 Мбайт (7%)
Заголовок: Dub R5
Язык: Russian
Default: Да
Forced: Нет

Аудио #2
Идентификатор: 3
Формат: AC-3
Формат/Информация: Audio Coding 3
Расширение режима: CM (complete main)
Идентификатор кодека: A_AC3
Продолжительность: 1 ч. 37 м.
Вид битрейта: Постоянный
Битрейт: 640 Кбит/сек
Каналы: 6 каналов
Расположение каналов: Front: L C R, Side: L R, LFE
Частота: 48,0 КГц
Битовая глубина: 16 бит
Метод сжатия: С потерями
Размер потока: 447 Мбайт (9%)
Язык: English
Default: Нет
Forced: Да

Текст #1
Идентификатор: 4
Формат: UTF-8
Идентификатор кодека: S_TEXT/UTF8
Идентификатор кодека/Информация: UTF-8 Plain Text
Язык: Russian
Default: Нет
Forced: Нет

Текст #2
Идентификатор: 5
Формат: UTF-8
Идентификатор кодека: S_TEXT/UTF8
Идентификатор кодека/Информация: UTF-8 Plain Text
Язык: Ukrainian
Default: Нет
Forced: Нет

Текст #3
Идентификатор: 6
Формат: UTF-8
Идентификатор кодека: S_TEXT/UTF8
Идентификатор кодека/Информация: UTF-8 Plain Text
Язык: English
Default: Нет
Forced: Нет

Меню
00:00:00.000: en:00:00:00.000
00:07:48.009: en:00:07:48.009
00:11:04.080: en:00:11:04.080
00:17:22.333: en:00:17:22.333
00:24:53.867: en:00:24:53.867
00:31:51.201: en:00:31:51.201
00:35:46.728: en:00:35:46.728
00:42:02.895: en:00:42:02.895
00:50:40.079: en:00:50:40.079
00:54:53.624: en:00:54:53.624
01:00:12.526: en:01:00:12.526
01:07:18.660: en:01:07:18.660
01:13:40.708: en:01:13:40.708
01:18:52.478: en:01:18:52.478
01:25:42.220: en:01:25:42.220
01:27:21.403: en:01:27:21.403
Свернуть
Не в сети
Профиль  
 Добавлено: 2012-03-28 07:31 (спустя 1 месяц 27 дней)
Аватара пользователя
Стаж: 8 лет 3 месяца
Возраст: 43
Сообщений: 3290
Спасибок: 21012
Лайков: 3
Полного источника не было никогда :par_don:
пока ставлю "Недооформлено"
_________________
Изображение


Тема поднималась пользователем bazanoff 2012-03-28 07:31.
Не в сети
Профиль  
Начать новую темуОтветить на тему  [ Сообщений: 2 ] 
Вы не можете начинать темы
Вы не можете отвечать на сообщения
Вы не можете редактировать свои сообщения
Вы не можете удалять свои сообщения