Правила форума

  • В этом разделе создание новых тем Запрещено.
  • Для создания новых тем пользуйтесь Корневым разделом DVD и HD фильмы.
Начать новую темуОтветить на тему  [ Сообщений: 8 ] 
Торрент файл
Размер: 10.58 GB • Зарегистрирован: 5 лет 7 месяцев • Статус: Проверено
Скачан: 251 раз • Желающих скачать: 0 • Поблагодарили: 30 раз
 Раздают: 0  |  0 KB/s  ]   Качают: 0  |  0 KB/s  ] 
 Полного источника не было 3 года 2 месяца 
Сообщения
 Добавлено: 2011-04-10 11:02
Модератор
Аватара пользователя
Стаж: 8 лет 1 месяц
Возраст: 20
Сообщений: 32130
Спасибок: 98569
Лайков: 80
Шаолинь / Shaolin
«Великая битва в стенах легенды»

Изображение
Год выпуска: 2011
Страна: Гонконг, Китай
Жанр: боевик, драма
Перевод: Профессиональный (многоголосый, закадровый) [переведено и озвучено BBC Saint-Petersburg по заказу ELEKTRI4KA и LHS]
Продолжительность: 02:11:05

Режиссер: Бенни Чан
Актеры: Энди Лау, Николас Тсе, Фань Бинбин, Джеки Чан, Джеки Ву, Ю Хин, Ксин Ксин Ксион
Описание: Шаолинь... Вряд ли найдется человек, который не слышал этого легендарного имени и не восхищался безупречной техникой его мастеров боевых искусств. Древняя обитель зачастую оказывалась в гуще сражений, меняя ход истории великой империи.
Вражда между китайскими военачальниками достигла своего предела. В безудержном стремлении завоевать соседние территории они погружают страну в пучину раздора. Молодой воин Сяо Че, одержав победу в поединке над одним из шаолиньских мастеров, начинает этим бахвалиться. Но самонадеянность к добру не ведет. В междоусобных распрях гибнет семья Сяо. Ему самому удается чудом спастись. Сяо укрывают шаолиньские монахи. Известия о бесчинствах местного «царька» достигают стен монастыря. Сяо Че и его новые друзья решают вмешаться и защитить простых людей от произвола жестокого завоевателя. Осуществится ли их дерзкий план? Или в финале битвы им придется спасаться бегством?

Релиз: Изображение Изображение Раздача: Изображение

Изображение
Изображение
Доп. информация
Бюджет: $29 000 000
Мировая премьера: 20 января 2011
MediaInfo
General
Complete name : D:\Шаолинь\Shaolin.2011.BluRay.1080p.AC3.x264.NNTT.k236mkv
Format : Matroska
File size : 9.89 GiB
Duration : 2h 11mn
Overall bit rate : 10.8 Mbps
Encoded date : UTC 2011-04-09 18:19:44
Writing application : mkvmerge v4.3.0 ('Escape from the Island') сборка от Sep 5 2010 10:30:51
Writing library : libebml v1.0.0 + libmatroska v1.0.0

Video
ID : 1
Format : AVC
Format/Info : Advanced Video Codec
Format profile : High@L4.1
Format settings, CABAC : Yes
Format settings, ReFrames : 5 frames
Muxing mode : Container profile=Unknown@4.1
Codec ID : V_MPEG4/ISO/AVC
Duration : 2h 10mn
Bit rate : 9 497 Kbps
Nominal bit rate : 9 712 Kbps
Width : 1 920 pixels
Height : 816 pixels
Display aspect ratio : 2.35
Frame rate : 23.976 fps
Resolution : 24 bits
Colorimetry : 4:2:0
Scan type : Progressive
Bits/(Pixel*Frame) : 0.253
Stream size : 8.69 GiB (88%)
Title : Shaolin.2011
Writing library : x264 core 107 r1766 f9f0035
Encoding settings : cabac=1 / ref=5 / deblock=1:-3:-3 / analyse=0x3:0x113 / me=umh / subme=9 / psy=1 / psy_rd=1.00:0.05 / mixed_ref=1 / me_range=32 / chroma_me=1 / trellis=2 / 8x8dct=1 / cqm=2 / deadzone=21,11 / fast_pskip=0 / chroma_qp_offset=-2 / threads=12 / sliced_threads=0 / nr=0 / decimate=1 / interlaced=0 / constrained_intra=0 / bframes=6 / b_pyramid=2 / b_adapt=2 / b_bias=0 / direct=3 / weightb=1 / open_gop=0 / weightp=2 / keyint=250 / keyint_min=23 / scenecut=40 / intra_refresh=0 / rc_lookahead=50 / rc=2pass / mbtree=1 / bitrate=9712 / ratetol=1.0 / qcomp=0.70 / qpmin=10 / qpmax=51 / qpstep=4 / cplxblur=20.0 / qblur=0.5 / vbv_maxrate=40000 / vbv_bufsize=30000 / ip_ratio=1.40 / aq=1:0.90 / nal_hrd=none
Language : Chinese

Audio #1
ID : 2
Format : AC-3
Format/Info : Audio Coding 3
Codec ID : A_AC3
Duration : 2h 11mn
Bit rate mode : Constant
Bit rate : 640 Kbps
Channel(s) : 6 channels
Channel positions : Front: L C R, Surround: L R, LFE
Sampling rate : 48.0 KHz
Stream size : 600 MiB (6%)
Title : DD5.1 640K Mandarin
Language : Chinese

Audio #2
ID : 3
Format : AC-3
Format/Info : Audio Coding 3
Codec ID : A_AC3
Duration : 2h 11mn
Bit rate mode : Constant
Bit rate : 448 Kbps
Channel(s) : 6 channels
Channel positions : Front: L C R, Surround: L R, LFE
Sampling rate : 48.0 KHz
Stream size : 420 MiB (4%)
Title : Профессиональное (многоголосое) [BBC Saint-Petersburg]
Language : Russian
Свернуть
Свернуть

Качество: BDRip 1080p
Формат: MKV
Видео: 9712 kb/s, 1920x816, 23.976 fps
Аудио: Russian: AC3, 448 kb/s (6 ch) / DTS, 755 kb/s (6 ch), Chinese: AC3, 640 kb/s (6 ch)
Субтитры: English

Скриншоты
Изображение
Изображение
Изображение
Изображение
Свернуть
Не в сети
Профиль  
 Добавлено: 2011-04-10 14:46 (спустя 3 часа)
Аватара пользователя
Стаж: 8 лет 9 месяцев
Сообщений: 49
А перевод только закадровый будет или дубляж намечается?)
Не в сети
Профиль  
 Добавлено: 2011-04-16 17:04 (спустя 6 дней)
Стаж: 8 лет 7 месяцев
Сообщений: 1
А как русский язык увидеть

Добавлено спустя 1 минута:
се снимаю свой вопрос, затупил
Не в сети
Профиль  
 Добавлено: 2011-04-19 08:20 (спустя 2 дня 15 часов)
Аватара пользователя
Стаж: 7 лет 9 месяцев
Сообщений: 15
Так как всё таки русский язык услышать или хотя бы увидеть
Не в сети
Профиль  
 Добавлено: 2011-04-19 14:18 (спустя 5 часов)
Аватара пользователя
Стаж: 8 лет 9 месяцев
Сообщений: 49
Del_piero
Аудио поток переключить,а уж как это сделать зависит от того какой у вас плеер!
Не в сети
Профиль  
 Добавлено: 2011-04-19 16:50 (спустя 2 часа 31 минута)
Аватара пользователя
Стаж: 7 лет 9 месяцев
Сообщений: 15
Pashok
Спасибо разобрался!
Не в сети
Профиль  
 Добавлено: 2011-05-02 15:39 (спустя 12 дней)
Стаж: 8 лет 11 месяцев
Сообщений: 224
Лайков: 10
Попробовал посмотреть файл на двух плеерах. IconBit HDD32L и на HD275HDMI. Показывает, что файл воспроизводится, но ни звука ни видео нет, чёрный экран и полоса прокрутки. Фильм на телевизоре посмотреть так и не получится?
Не в сети
Профиль  
 Добавлено: 2011-05-03 15:36 (спустя 23 часа)
Стаж: 8 лет 7 месяцев
Сообщений: 14
На иконбите обновил прошивку (6L) - заговорил
Кино не понравилось
Не в сети
Профиль  
Начать новую темуОтветить на тему  [ Сообщений: 8 ] 
Вы не можете начинать темы
Вы не можете отвечать на сообщения
Вы не можете редактировать свои сообщения
Вы не можете удалять свои сообщения