Правила форума

  • В этом разделе создание новых тем Запрещено.
  • Для создания новых тем пользуйтесь Корневым разделом DVD и HD фильмы.
Начать новую темуОтветить на тему  [ 1 сообщение ] 
Торрент файл
Размер: 5.22 GB • Зарегистрирован: 3 года 10 месяцев • Статус: Проверено
Скачан: 9 раз • Желающих скачать: 0 • Поблагодарили: 3 раза
 Раздают: 0  |  0 KB/s  ]   Качают: 0  |  0 KB/s  ] 
 Полного источника не было 3 года 2 месяца 
Сообщения
 Добавлено: 2013-01-15 21:44
Модератор релиз-группы
Аватара пользователя
Стаж: 9 лет 1 месяц
Возраст: 97
Сообщений: 11659
Спасибок: 6532
Лайков: 269
Щепка/Sliver

Изображение


Год выпуска: 1993
Страна: США
Жанр: триллер, мелодрама
Продолжительность: 01:42:58
Перевод: Профессиональный (многоголосый, закадровый, НТВ+)
Перевод 2: Профессиональный закадровый - Алексей Михалёв
Субтитры: Нет

Режиссёр: Филлип Нойс
В ролях: Шэрон Стоун, Уильям Болдуин, Том Беренджер, Полли Уокер,Коллин Кэмп, Аманда Формен, Мартин Ландау, Си Си Эйч Паундер, Нина Фош, Кин Кертис
Описание: Сотрудница издательства Кей Норрис переезжает на новую квартиру в модном небоскребе, прозванном "щепка". Там она становится объектом соперничества двух мужчин - владельца дома и одного из жильцов, автора популярных детективов. Серия таинственных убийств, происходящих в доме, наводит ее на мысль, что вокруг нее самой сжимается опасное кольцо. Кей понимает, что неизвестный убийца - один из ее поклонников...

Изображение 6.7/10 1 325 votes
Релиз группы: Изображение
Качество: HDTV
Формат: mkv
Видео кодек: H.264
Аудио кодек: AC3 (Dolby Digital)
Видео: H.264/AVC/1080i Video 1920x1088 (1920x1080) @ 25.000 fps Average bitrate 7.59 Mbps
Аудио: Аудио 1: Русский DD 2.0 48KHz 256Kbit/s (НТВ+)
Аудио 2: Русский DD 2.0 48KHz 256Kbit/s (Михалёв)

Субтитры: Нет
MediaInfo
General
Unique ID : 231512291876857911309747861832107145356 (0xAE2BA5423C7EA9028AEEBEFC9BE5B88C)
Complete name : D:\Щепка\1993.Sliver.DVB.HDTV.1080i.mkv
Format : Matroska
Format version : Version 4 / Version 2
File size : 5.22 GiB
Duration : 1h 42mn
Overall bit rate mode : Variable
Overall bit rate : 7 258 Kbps
Encoded date : UTC 2010-02-22 21:41:31
Writing application : mkvmerge v5.9.0 ('On The Loose') built on Dec 9 2012 15:37:01
Writing library : libebml v1.3.0 + libmatroska v1.4.0

Video
ID : 1
Format : AVC
Format/Info : Advanced Video Codec
Format profile : Main@L4.0
Format settings, CABAC : Yes
Format settings, ReFrames : 4 frames
Muxing mode : Header stripping
Codec ID : V_MPEG4/ISO/AVC
Duration : 1h 42mn
Bit rate mode : Variable
Bit rate : 6 602 Kbps
Maximum bit rate : 40.0 Mbps
Width : 1 920 pixels
Height : 1 080 pixels
Display aspect ratio : 16:9
Frame rate mode : Constant
Frame rate : 25.000 fps
Color space : YUV
Chroma subsampling : 4:2:0
Bit depth : 8 bits
Scan type : Interlaced
Scan order : Top Field First
Bits/(Pixel*Frame) : 0.127
Stream size : 4.75 GiB (91%)
Default : Yes
Forced : No
Color primaries : BT.709
Transfer characteristics : BT.709
Matrix coefficients : BT.709

Audio #1
ID : 2
Format : AC-3
Format/Info : Audio Coding 3
Mode extension : CM (complete main)
Format settings, Endianness : Big
Muxing mode : Header stripping
Codec ID : A_AC3
Duration : 1h 42mn
Bit rate mode : Constant
Bit rate : 256 Kbps
Channel(s) : 2 channels
Channel positions : Front: L R
Sampling rate : 48.0 KHz
Bit depth : 16 bits
Compression mode : Lossy
Delay relative to video : 51ms
Stream size : 189 MiB (4%)
Title : НТВ+
Language : Russian
Default : Yes
Forced : No

Audio #2
ID : 3
Format : AC-3
Format/Info : Audio Coding 3
Mode extension : CM (complete main)
Format settings, Endianness : Big
Muxing mode : Header stripping
Codec ID : A_AC3
Duration : 1h 42mn
Bit rate mode : Constant
Bit rate : 256 Kbps
Channel(s) : 2 channels
Channel positions : Front: L R
Sampling rate : 48.0 KHz
Bit depth : 16 bits
Compression mode : Lossy
Delay relative to video : 51ms
Stream size : 189 MiB (4%)
Title : Алексей Михалёв
Language : Russian
Default : No
Forced : No


Свернуть

Скриншоты
Изображение

Изображение

Изображение
Свернуть

за оформление отдельное спасибо Luciferchik :)
_________________
Изображение
Не в сети
Профиль  
Начать новую темуОтветить на тему  [ 1 сообщение ] 
Вы не можете начинать темы
Вы не можете отвечать на сообщения
Вы не можете редактировать свои сообщения
Вы не можете удалять свои сообщения