Правила форума

  • В этом разделе создание новых тем Запрещено.
  • Для создания новых тем пользуйтесь Корневым разделом DVD и HD фильмы.
Начать новую темуОтветить на тему  [ Сообщений: 3 ] 
Торрент файл
Размер: 1.68 GB • Зарегистрирован: 1 год 11 месяцев • Статус: T Временный релиз
Скачан: 12 раз • Желающих скачать: 0 • Поблагодарили: 7 раз
 Раздают: 0  |  0 KB/s  ]   Качают: 0  |  0 KB/s  ] 
 Полного источника не было 2 месяца 18 дней 
Сообщения
 Добавлено: 2014-12-12 13:02
RG-ELEKTRO
Аватара пользователя
Стаж: 2 года 3 месяца
Сообщений: 7928
Спасибок: 53778
Лайков: 3304
Шедевры ужаса / Частицы таланта / Pieces of Talent


Изображение

Выпущено: США
Год выхода: 2014
Жанр: ужасы, триллер
Продолжительность: 01:35:14
Озвучивание: Любительское (двухголосое) [DeadSno & den904]

Режиссер: Джо Стойффер

В ролях: Дэвид Лонг, Кристи Рэй, Тейлор Ковальски, Барбара Уитман, Джон Стэффорд, Нат Паннинг, Джой Минк, Шэйн Каллахан, Джон Марчиони, Саймон Крист

О фильме:
Кинолента победитель Fear Fete Film Festival 2013 в двух номинациях и победитель FREAK SHOW Horror Film Festival 2013.
Действие фильма разворачивается в маленьком городке в Северной Каролине. Шарлотта, начинающая актриса, работает в ночном клубе официанткой, и еле сводит концы с концами. Однажды она случайно знакомится с местным режиссёром фильмов ужасов Дэвидом. Они быстро становятся друзьями, и Шарлотта претендует на главную роль в его новом проекте. Одержимый Шарлоттой Джвид начинает создавать свой очередной шедевр ужаса, который выразит всю красоту его новой музы

Изображение | Изображение

Формат: MKV
Качество: WEBRip 720p
Видео: 1583 kb/s, 1280x720
Аудио: Russian / English: AC3, 448 kb/s (2 ch)



"Media Info"
General
Unique ID : 244419144612327575585205780261577350946 (0xB7E16A3AC1702D8E8745A98C94FEDF22)
Complete name : C:UsersuserDesktopPieces.Of.Talent.2014.WEBRip.720p.mkv
Format : Matroska
Format version : Version 4 / Version 2
File size : 1.68 GiB
Duration : 1h 35mn
Overall bit rate : 2 529 Kbps
Movie name : Release By ~Relizer~
Encoded date : UTC 2014-12-10 02:58:25
Writing application : mkvmerge v7.3.0 ('Nouages') 32bit built on Oct 22 2014 18:44:01
Writing library : libebml v1.3.0 + libmatroska v1.4.1
DURATION : 01:35:14.368000000
NUMBER_OF_FRAMES : 178574
NUMBER_OF_BYTES : 320004608
_STATISTICS_WRITING_APP : mkvmerge v7.3.0 ('Nouages') 32bit built on Oct 22 2014 18:44:01
_STATISTICS_WRITING_DATE_UTC : 2014-12-10 02:58:25
_STATISTICS_TAGS : BPS DURATION NUMBER_OF_FRAMES NUMBER_OF_BYTES

Video
ID : 1
Format : AVC
Format/Info : Advanced Video Codec
Format profile : High@L3.1
Format settings, CABAC : Yes
Format settings, ReFrames : 4 frames
Codec ID : V_MPEG4/ISO/AVC
Duration : 1h 35mn
Bit rate : 1 583 Kbps
Width : 1 280 pixels
Height : 720 pixels
Display aspect ratio : 16:9
Frame rate mode : Constant
Frame rate : 23.976 fps
Color space : YUV
Chroma subsampling : 4:2:0
Bit depth : 8 bits
Scan type : Progressive
Bits/(Pixel*Frame) : 0.072
Stream size : 1.05 GiB (63%)
Title : Release By ~Relizer~
Writing library : x264 core 142 r2431 a5831aa
Encoding settings : cabac=1 / ref=3 / deblock=1:0:0 / analyse=0x3:0x113 / me=hex / subme=7 / psy=1 / psy_rd=1.00:0.00 / mixed_ref=1 / me_range=16 / chroma_me=1 / trellis=1 / 8x8dct=1 / cqm=0 / deadzone=21,11 / fast_pskip=1 / chroma_qp_offset=-2 / threads=48 / lookahead_threads=5 / sliced_threads=0 / nr=0 / decimate=1 / interlaced=0 / bluray_compat=0 / stitchable=1 / constrained_intra=0 / bframes=3 / b_pyramid=2 / b_adapt=1 / b_bias=0 / direct=1 / weightb=1 / open_gop=0 / weightp=2 / keyint=72 / keyint_min=24 / scenecut=40 / intra_refresh=0 / rc_lookahead=40 / rc=crf / mbtree=1 / crf=20.0 / qcomp=0.60 / qpmin=5 / qpmax=69 / qpstep=4 / vbv_maxrate=2750 / vbv_bufsize=7500 / crf_max=0.0 / nal_hrd=none / filler=0 / ip_ratio=1.40 / aq=1:1.00
Default : Yes
Forced : No

Audio #1
ID : 2
Format : AC-3
Format/Info : Audio Coding 3
Mode extension : CM (complete main)
Format settings, Endianness : Big
Codec ID : A_AC3
Duration : 1h 35mn
Bit rate mode : Constant
Bit rate : 448 Kbps
Channel(s) : 2 channels
Channel positions : Front: L R
Sampling rate : 48.0 KHz
Bit depth : 16 bits
Compression mode : Lossy
Stream size : 305 MiB (18%)
Title : Влад и Снежинка
Language : Russian
Default : Yes
Forced : Yes

Audio #2
ID : 3
Format : AC-3
Format/Info : Audio Coding 3
Mode extension : CM (complete main)
Format settings, Endianness : Big
Codec ID : A_AC3
Duration : 1h 35mn
Bit rate mode : Constant
Bit rate : 448 Kbps
Channel(s) : 2 channels
Channel positions : Front: L R
Sampling rate : 48.0 KHz
Bit depth : 16 bits
Compression mode : Lossy
Stream size : 305 MiB (18%)
Language : English
Default : No
Forced : No
Свернуть




"Скриншоты"
Изображение
Изображение
Изображение


Свернуть

_________________
Не ищите меня в "ВКонтакте", в "Одноклассниках" меня нет - я на трекерах сижу!
Не в сети
Профиль  
 Добавлено: 2014-12-13 14:26 (спустя 1 день 1 час)
Модератор
Аватара пользователя
Стаж: 8 лет 2 месяца
Возраст: 30
Сообщений: 3200
Спасибок: 2960
Лайков: 206
Тааакой :sh_ok: бред!
_________________

ИзображениеПравила Создание релизов от А до Я
Не в сети
Профиль  
 Добавлено: 2014-12-13 14:40 (спустя 14 минут)
RG-ELEKTRO
Аватара пользователя
Стаж: 2 года 3 месяца
Сообщений: 7928
Спасибок: 53778
Лайков: 3304

TooGooD:

Тааакой :sh_ok: бред!
:par_don:
_________________
Не ищите меня в "ВКонтакте", в "Одноклассниках" меня нет - я на трекерах сижу!
Не в сети
Профиль  
Начать новую темуОтветить на тему  [ Сообщений: 3 ] 
Вы не можете начинать темы
Вы не можете отвечать на сообщения
Вы не можете редактировать свои сообщения
Вы не можете удалять свои сообщения