Правила форума

  • В этом разделе создание новых тем Запрещено.
  • Для создания новых тем пользуйтесь Корневым разделом DVD и HD фильмы.
Начать новую темуОтветить на тему  [ Сообщений: 11 ] 
Торрент файл
Размер: 15.51 GB • Зарегистрирован: 4 года 6 месяцев • Статус: Проверено
Скачан: 307 раз • Желающих скачать: 0 • Поблагодарили: 70 раз
 Раздают: 1  |  0 KB/s  ]   Качают: 0  |  0 KB/s  ] 
Сообщения
 Добавлено: 2012-05-07 18:14
Модератор
Аватара пользователя
Стаж: 5 лет 8 месяцев
Сообщений: 6281
Спасибок: 17334
Лайков: 1633
Изображение

Шерлок Холмс / Sherlock Holmes (Гай Ричи) [2009, боевик, триллер, драма, комедия, криминал, детектив, приключения, BDRip 1080p


Шерлок Холмс / Sherlock Holmes


«От них не скроешься»


Изображение

Год выпуска: 2009
Страна: Изображение США, Изображение Германия, Изображение Великобритания
Жанр: боевик, триллер, драма, комедия, криминал, детектив, приключения
Продолжительность: 128 мин. / 02:08
Перевод: Профессиональный (дубляж)
Субтитры: Нет


Режиссёр: Гай Ричи
Сценарист: Майкл Роберт Джонсон, Энтони Пекэм, Саймон Кинберг
Продюсер: Сьюзан Дауни, Дэн Лин, Джоэл Силвер
Оператор: Филипп Русло
Композитор: Ханс Циммер
В ролях: Роберт Дауни мл., Джуд Лоу, Рэйчел МакАдамс, Марк Стронг, Эдди Марсан, Роберт Мэйллет, Джеральдин Джеймс, Келли Райлли, Уильям Хьюстон, Ганс Мэтисон

Описание: Величайший в истории сыщик Шерлок Холмс вместе со своим верным соратником Ватсоном вступают в схватку, требующую нешуточной физической и умственной подготовки, ведь их враг представляет угрозу для всего Лондона.

Рейтинг MPAA: Рейтинг PG-13 (Дети до 13 лет допускаются на фильм только с родителями)
Мировая премьера: 24 декабря 2009
Премьера в России: 31 декабря 2009
Бюджет: $90 000 000
Изображение Top: №138 


Качество: BDRip 1080p
Формат: MKV
Видео кодек: AVC
Аудио кодек: AC3 (Dolby Digital)
Видео: 1920x1080, 8250 kb/s, 23.976 fps
Аудио #1: AC3, 448 kb/s (6Ch) [Профессиональный (дубляж)]
Субтитры: Нет

Скриншоты
Изображение
Изображение
Изображение
Свернуть
Знаете ли Вы, что...
  • Во время съемок боевой сцены Роберт Мэйллет (бывший рестлер) случайно нокаутировал Роберта Дауни-младшего.
  • На ранней стадии производства картины планировалось, что роль Доктора Ватсона дадут Колину Фаррелу, однако позже режиссер отдал предпочтение кандидатуре Джуда Лоу.
  • На роль доктора Ватсона было рассмотрено свыше 20-ти актёров, среди них - Джон Кьюсак, Джерард Батлер и Крис Пайн.
  • События фильма предшествуют встрече профессора Мориарти и Шерлока Холмса, но при этом Ватсон уже помолвлен, что несколько противоречит событиям, описанным Артуром Конан Дойлем.
  • Роберт принял участие в создании гардероба сыщика и сам купил в лондонском магазине «Lock & Co» шляпу и трубку.
  • Съемки проходили в окрестностях Лондона и Манчестера, где сохранилось много живописных складских помещений XIX века. А интерьер дома 221б по Бейкер-стрит собрали из реквизита, который использовался для обустройства жилища Сириуса Блэка в фильме «Гарри Поттер и Орден Феникса».
  • Герои фильма говорят о радиоволнах. Термин «радио» впервые был использован в 1907 году.
  • В лаборатории Реордана Шерлок Холмс говорит о том, что ощущает запах «кэнди-флосс» («сахарные волоконца», сахарная вата). Это лакомство было изобретено в 1894 году, но впервые представлено публике только в 1904-м.
  • В одном из кадров мы видим здание Биг Бена и стоящее рядом с ним здание Портикулис (Portcullis House), где находятся кабинеты членов британского парламента. Портикулис был построен в 1993 году.
  • В числе прочих обвинений, на основе которых лорду Блэквуду произносят смертный приговор, звучит «занятие черной магией». После Закона о колдовстве 1735 года черная магия не считалась в Великобритании преступлением, караемым смертной казнью. Впрочем, по совокупности других лорд Блэквуд всё равно отправился бы на эшафот.
  • Главный злодей фильма - лорд Блэквуд, частично списан с легендарного оккультиста Алистера Кроули.
  • Движение в фильме правостороннее, а не левостороннее, как должно быть в Лондоне.
Свернуть
MediaInfo
Общее
Уникальный идентификатор : 195235359438896211905539725926493694183 (0x92E0F6660CC4B3B9A8B89FD64B1DA8E7)
Полное имя : F:\Films\Horror\Sherlock Holms. Dilogy. BDRip 1080p. for NNTT.org\Sherlock Holmes.mkv
Формат : Matroska
Версия формата : Version 2
Размер файла : 7,74 Гбайт
Продолжительность : 2 ч. 8 м.
Общий поток : 8634 Кбит/сек
Дата кодирования : UTC 2010-08-11 07:01:19
Программа кодирования : mkvmerge v3.3.0 ('Language') built on Mar 24 2010 14:59:24
Библиотека кодирования : libebml v0.8.0 + libmatroska v0.9.0

Видео
Идентификатор : 1
Формат : AVC
Формат/Информация : Advanced Video Codec
Профиль формата : High@L4.1
Параметр CABAC формата : Да
Параметр ReFrames формата : 4 кадра
Идентификатор кодека : V_MPEG4/ISO/AVC
Продолжительность : 2 ч. 8 м.
Битрейт : 8250 Кбит/сек
Ширина : 1920 пикселей
Высота : 1080 пикселей
Соотношение сторон : 16:9
Частота кадров : 23,976 кадра/сек
Цветовое пространство : YUV
Субдискретизация насыщенности : 4:2:0
Битовая глубина : 8 бит
Тип развёртки : Прогрессивная
Бит/(Пиксели*Кадры) : 0.166
Размер потока : 7,19 Гбайт (93%)
Библиотека кодирования : x264 core 92 r1510 33d382a
Настройки программы : cabac=1 / ref=4 / deblock=1:-3:-3 / analyse=0x3:0x113 / me=esa / subme=10 / psy=1 / psy_rd=1.00:0.20 / mixed_ref=1 / me_range=32 / chroma_me=1 / trellis=2 / 8x8dct=1 / cqm=0 / deadzone=21,11 / fast_pskip=0 / chroma_qp_offset=-3 / threads=6 / sliced_threads=0 / nr=0 / decimate=0 / interlaced=0 / constrained_intra=0 / bframes=4 / b_pyramid=2 / b_adapt=2 / b_bias=0 / direct=3 / wpredb=1 / wpredp=2 / keyint=250 / keyint_min=25 / scenecut=40 / intra_refresh=0 / rc_lookahead=60 / rc=cbr / mbtree=1 / bitrate=8250 / ratetol=1.0 / qcomp=0.60 / qpmin=10 / qpmax=51 / qpstep=4 / vbv_maxrate=50000 / vbv_bufsize=50000 / ip_ratio=1.40 / aq=1:1.00 / nal_hrd=none
Default : Да
Forced : Нет

Аудио
Идентификатор : 2
Формат : AC-3
Формат/Информация : Audio Coding 3
Расширение режима : CM (complete main)
Идентификатор кодека : A_AC3
Продолжительность : 2 ч. 8 м.
Вид битрейта : Постоянный
Битрейт : 448 Кбит/сек
Каналы : 6 каналов
Расположение каналов : Front: L C R, Side: L R, LFE
Частота : 48,0 КГц
Битовая глубина : 16 бит
Метод сжатия : С потерями
Размер потока : 411 Мбайт (5%)
Default : Да
Forced : Нет

Свернуть
Свернуть
Шерлок Холмс: Игра теней / Sherlock Holmes: A Game of Shadows (Гай Ричи) 2011, боевик, триллер, драма, криминал, детектив, приключения, BDRip 1080
Шерлок Холмс: Игра теней / Sherlock Holmes: A Game of Shadows


Изображение

Год выпуска: 2011
Страна: Изображение США
Жанр: боевик, триллер, криминал, детектив, приключения
Продолжительность: 128 мин. / 02:08
Перевод: Профессиональный (Дубляж)
Субтитры: Русские, Английские


Режиссёр: Гай Ричи
Сценарист: Киран Малруни, Мишель Малруни, Артур Конан Дойл
Продюсер: Сьюзан Дауни, Дэн Лин, Джоэл Силвер
Оператор: Филипп Русло
Композитор: Ханс Циммер
В ролях: Роберт Дауни мл., Джуд Лоу, Нуми Рапас, Джаред Харрис, Пол Андерсон, Стивен Фрай, Рэйчел МакАдамс, Келли Райлли, Джеральдин Джеймс, Эдди Марсан

Описание: 1891 год. В Вене и Страсбурге проходит серия терактов, организованных анархистами или националистами, а по всей Европе происходят таинственные убийства. Шерлок Холмс считает, что за всем этим стоит профессор Джеймс Мориарти — математический гений, автор знаменитых лекций и трудов.

Рейтинг MPAA: Рейтинг PG-13 (Дети до 13 лет допускаются на фильм только с родителями)
Мировая премьера: 10 декабря 2011
Премьера в России: 29 декабря 2011
Бюджет: $125 000 000
Изображение


Качество: BDRip 1080p
Формат: MKV
Видео кодек: AVC
Аудио кодек: AC3 (Dolby Digital)
Видео: 7743 kb/s, 1920x800, 23.976 fps
Аудио #1: AC3, 448 kb/s (6Ch) - Дубляж
Аудио #2: AC3, 448 kb/s (6Ch) - Оригинал
Субтитры: Русские, Английские

Скриншоты
Изображение
Изображение
Изображение
Свернуть
Знаете ли Вы, что...
  • Брэд Питт, Гари Олдман, Дэниел Дэй-Льюис, Шон Пенн и Хавьер Бардем рассматривались на роль профессора Мориарти.
  • Макияж Холмса в сцене разборки в поезде — это аллюзия на внешний вид Джокера в исполнении Хита Леджера («Темный рыцарь»).
  • В финальной части картины, Шерлок Холмс ставит профессору шах слоном, на что тот отвечает рокировкой. Устная партия, тем не менее, продолжается. По правилам, рокировка из-под шаха запрещена.
Свернуть
MediaInfo
Общее
Уникальный идентификатор : 193963175880265560757774088549476363367 (0x91EBF2E81238B59DB87C77AD19F06C67)
Полное имя : F:\Films\Horror\Sherlock Holms. Dilogy. BDRip 1080p. for NNTT.org\Sherlock.Holmes.A.Game.of.Shadows.BDRip.1080p.mkv
Формат : Matroska
Версия формата : Version 2
Размер файла : 7,77 Гбайт
Продолжительность : 2 ч. 8 м.
Общий поток : 8636 Кбит/сек
Название фильма : Sherlock Holmes: A Game of Shadows (2011)-BDRip 1080p от Neofilm
Дата кодирования : UTC 2012-04-23 18:02:47
Программа кодирования : mkvmerge v5.3.0 ('I could have danced') built on Feb 9 2012 10:38:07
Библиотека кодирования : libebml v1.2.3 + libmatroska v1.3.0

Видео
Идентификатор : 1
Формат : AVC
Формат/Информация : Advanced Video Codec
Профиль формата : High@L4.1
Параметр CABAC формата : Да
Параметр ReFrames формата : 5 кадров
Идентификатор кодека : V_MPEG4/ISO/AVC
Продолжительность : 2 ч. 8 м.
Битрейт : 7743 Кбит/сек
Ширина : 1920 пикселей
Высота : 800 пикселей
Соотношение сторон : 2,40:1
Частота кадров : 23,976 кадра/сек
Цветовое пространство : YUV
Субдискретизация насыщенности : 4:2:0
Битовая глубина : 8 бит
Тип развёртки : Прогрессивная
Бит/(Пиксели*Кадры) : 0.210
Размер потока : 6,81 Гбайт (88%)
Заголовок : Rip от Neofilm
Библиотека кодирования : x264 core 120 r2164 da19765
Настройки программы : cabac=1 / ref=5 / deblock=1:-3:-3 / analyse=0x3:0x113 / me=umh / subme=10 / psy=1 / psy_rd=1.00:0.05 / mixed_ref=1 / me_range=32 / chroma_me=1 / trellis=2 / 8x8dct=1 / cqm=0 / deadzone=21,11 / fast_pskip=0 / chroma_qp_offset=-3 / threads=12 / sliced_threads=0 / nr=0 / decimate=0 / interlaced=0 / bluray_compat=0 / constrained_intra=0 / bframes=5 / b_pyramid=2 / b_adapt=2 / b_bias=0 / direct=3 / weightb=1 / open_gop=0 / weightp=2 / keyint=240 / keyint_min=23 / scenecut=40 / intra_refresh=0 / rc_lookahead=40 / rc=2pass / mbtree=0 / bitrate=7743 / ratetol=1.0 / qcomp=0.60 / qpmin=0 / qpmax=69 / qpstep=4 / cplxblur=20.0 / qblur=0.5 / vbv_maxrate=50000 / vbv_bufsize=62500 / nal_hrd=none / ip_ratio=1.40 / pb_ratio=1.30 / aq=1:0.70
Язык : English
Default : Да
Forced : Нет

Аудио #1
Идентификатор : 2
Формат : AC-3
Формат/Информация : Audio Coding 3
Расширение режима : CM (complete main)
Идентификатор кодека : A_AC3
Продолжительность : 2 ч. 8 м.
Вид битрейта : Постоянный
Битрейт : 448 Кбит/сек
Каналы : 6 каналов
Расположение каналов : Front: L C R, Side: L R, LFE
Частота : 48,0 КГц
Битовая глубина : 16 бит
Метод сжатия : С потерями
Размер потока : 413 Мбайт (5%)
Заголовок : Дубляж
Язык : Russian
Default : Нет
Forced : Нет

Аудио #2
Идентификатор : 3
Формат : AC-3
Формат/Информация : Audio Coding 3
Расширение режима : CM (complete main)
Идентификатор кодека : A_AC3
Продолжительность : 2 ч. 8 м.
Вид битрейта : Постоянный
Битрейт : 448 Кбит/сек
Каналы : 6 каналов
Расположение каналов : Front: L C R, Side: L R, LFE
Частота : 48,0 КГц
Битовая глубина : 16 бит
Метод сжатия : С потерями
Размер потока : 413 Мбайт (5%)
Язык : English
Default : Да
Forced : Нет

Текст #1
Идентификатор : 4
Формат : UTF-8
Идентификатор кодека : S_TEXT/UTF8
Идентификатор кодека/Информация : UTF-8 Plain Text
Заголовок : DUB
Язык : Russian
Default : Нет
Forced : Нет

Текст #2
Идентификатор : 5
Формат : UTF-8
Идентификатор кодека : S_TEXT/UTF8
Идентификатор кодека/Информация : UTF-8 Plain Text
Язык : English
Default : Нет
Forced : Нет

Текст #3
Идентификатор : 6
Формат : UTF-8
Идентификатор кодека : S_TEXT/UTF8
Идентификатор кодека/Информация : UTF-8 Plain Text
Заголовок : SDH
Язык : English
Default : Нет
Forced : Нет

Меню
00:00:00.000 : en:Chapter 1
00:09:18.266 : en:Chapter 2
00:19:37.634 : en:Chapter 3
00:30:46.844 : en:Chapter 4
00:40:13.702 : en:Chapter 5
00:50:29.025 : en:Chapter 6
00:59:45.456 : en:Chapter 7
01:09:20.823 : en:Chapter 8
01:18:58.275 : en:Chapter 9
01:30:08.694 : en:Chapter 10
01:39:08.734 : en:Chapter 11
01:49:50.375 : en:Chapter 12
02:00:24.717 : en:Chapter 13
Свернуть
Свернуть
Не в сети
Профиль  
 Добавлено: 2012-05-16 20:39 (спустя 9 дней)
Аватара пользователя
Стаж: 8 лет 1 месяц
Возраст: 26
Сообщений: 132
Лайков: 1
Встаньте на раздачу, скорость маленькая!!!!
спс!
Не в сети
Профиль  
 Добавлено: 2012-05-24 06:42 (спустя 7 дней)
Модератор
Аватара пользователя
Стаж: 5 лет 8 месяцев
Сообщений: 6281
Спасибок: 17334
Лайков: 1633
PREDATOR-REQUIEM
нормальная скорость!
_________________
Изображение Изображение Изображение
Не в сети
Профиль  
 Добавлено: 2012-05-27 09:12 (спустя 3 дня)
Стаж: 8 лет 3 месяца
Сообщений: 8
Где перевод в Шерлок Холмс: Игра теней ???? :men:

Добавлено спустя 10 минут:
Windows Media Player и Media Player Classic никаких звуковых дорожек кроме английской не видят
Не в сети
Профиль  
 Добавлено: 2012-05-29 19:56 (спустя 2 дня 10 часов)
Модератор
Аватара пользователя
Стаж: 5 лет 8 месяцев
Сообщений: 6281
Спасибок: 17334
Лайков: 1633
kiselyov1979
Изображение
_________________
Изображение Изображение Изображение
Не в сети
Профиль  
 Добавлено: 2015-02-09 16:28 (спустя 2 года 8 месяцев)
Модератор
Аватара пользователя
Стаж: 5 лет 8 месяцев
Сообщений: 6281
Спасибок: 17334
Лайков: 1633
:)
_________________
Изображение Изображение Изображение
Не в сети
Профиль  
 Добавлено: 2015-02-10 12:49 (спустя 20 часов)
Стаж: 7 лет 9 месяцев
Сообщений: 23
Спасибок: 99
bazanoff, так там есть английская дорожка и английские субтитры?
Не в сети
Профиль  
 Добавлено: 2015-02-10 14:22 (спустя 1 час 32 минуты)
Модератор
Аватара пользователя
Стаж: 5 лет 8 месяцев
Сообщений: 6281
Спасибок: 17334
Лайков: 1633

HumptyDumpty:

bazanoff, так там есть английская дорожка и английские субтитры?
В первом фильме нет, во втором есть. Читайте внимательнее тех. данные.
_________________
Изображение Изображение Изображение
Не в сети
Профиль  
 Добавлено: 2015-02-11 22:15 (спустя 1 день 7 часов)
Стаж: 5 лет 7 месяцев
Сообщений: 8
вообще скорости нет. встаньте на раздачу. спасибо
Не в сети
Профиль  
 Добавлено: 2015-02-19 23:30 (спустя 8 дней)
Стаж: 7 лет 9 месяцев
Сообщений: 23
Спасибок: 99

bazanoff:

HumptyDumpty:

bazanoff, так там есть английская дорожка и английские субтитры?
В первом фильме нет, во втором есть. Читайте внимательнее тех. данные.
Внимательно прочитал тех. данные первого фильма, второго и читать не стал. Смысл выпускать такие половинчатые релизы? Я, например, качать не буду (и раздавать, соответственно), потому что в первом фильме нет ни английской дорожки, ни английских субтитров. А тем, кого это не смущает, нафиг не впёрлись ни английские субтитры, ни английская дорожка во втором фильме. Правда, у них преимущество - они могут лишнее вырезать.
Не в сети
Профиль  
 Добавлено: 2016-11-07 19:23 (спустя 1 год 8 месяцев)
Аватара пользователя
Стаж: 8 лет 9 месяцев
Сообщений: 59
Спасибок: 336
Раздайте
Не в сети
Профиль  
Начать новую темуОтветить на тему  [ Сообщений: 11 ] 
Вы не можете начинать темы
Вы не можете отвечать на сообщения
Вы не можете редактировать свои сообщения
Вы не можете удалять свои сообщения
cron